<svg>
<metadata>
Created by FontForge 20090622 at Wed Sep 5 12:47:32 2018 By deploy user Â©2012 Paul Barnes, Christian Schwartz, and Ross Milne, under exclusive license to Schwartzco Inc./Commercial Type. All rights reserved. [wfr]
</metadata>
<defs>
<font id="PublicoBanner-Bold" horiz-adv-x="480">
<font-face font-family="Publico Banner" font-weight="600" font-stretch="normal" units-per-em="1000" panose-1="2 4 8 2 6 5 4 6 2 3" ascent="803" descent="-197" x-height="522" cap-height="693" bbox="-134 -244 1236 1061" underline-thickness="71" underline-position="-7" unicode-range="U+000D-U+FB04"/>
<missing-glyph horiz-adv-x="500"/>
<glyph glyph-name="f_f" unicode="ff" horiz-adv-x="651" d="M305 749q95 0 128 -47q63 60 184 60q66 0 103.5 -22t37.5 -63q0 -30 -18.5 -46.5t-50.5 -16.5q-36 0 -52 19t-20 67q-2 21 -5.5 27.5t-13.5 6.5q-27 0 -40.5 -26.5t-13.5 -89.5v-96h96l-7 -49h-89v-395q0 -32 5.5 -40t31.5 -14l33 -9v-15h-296v15l18 5q26 6 31 14t5 44 v395h-136v-394q0 -35 5 -44t29 -15l22 -5v-15h-290v15l21 6q28 8 34 16.5t6 41.5v394h-65v11l65 38v19q0 95 63.5 151.5t178.5 56.5zM372 522v31q0 22 5 49q-33 2 -46 21t-16 65q-2 20 -6.5 27t-14.5 7q-58 0 -58 -116v-84h136z"/>
<glyph glyph-name="f_i" unicode="fi" horiz-adv-x="606" d="M364 522l176 13l7 -5q-4 -52 -4 -126v-326q0 -33 6.5 -42t34.5 -15l20 -6v-15h-288v15l18 5q27 6 31.5 14t4.5 44v332q0 42 -8.5 52.5t-39.5 10.5h-86v-395q0 -34 5 -43t29 -15l22 -5v-15h-290v15l21 6q28 8 34 16t6 41v395h-65v11l65 38v10q0 104 72 167t200 63 q74 0 118.5 -26.5t44.5 -73.5q0 -25 -20 -42.5t-55 -17.5q-42 0 -59.5 20.5t-27.5 82.5q-2 17 -7.5 23t-18.5 6q-74 0 -74 -130v-82h128z"/>
<glyph glyph-name="f_l" unicode="fl" horiz-adv-x="610" d="M2 0v15l21 6q28 8 34 16t6 41v395h-65v11l65 38v29q0 97 64 154t186 57q107 0 135 -52l92 47l8 -5l-2 -36q-2 -46 -2 -86v-551q0 -32 7 -40.5t37 -17.5l21 -6v-15h-291v15l18 5q25 6 30.5 14.5t5.5 44.5v535q-28 4 -40.5 23.5t-15.5 62.5q-2 22 -6.5 28t-14.5 6 q-31 0 -45 -27t-14 -91v-94h86l-7 -49h-79v-395q0 -34 5 -43t29 -15l22 -5v-15h-290z"/>
<glyph glyph-name="f_f_i" unicode="ffi" horiz-adv-x="915" d="M318 0v15l18 5q26 6 31 14.5t5 43.5v395h-136v-394q0 -33 5.5 -43t29.5 -16l22 -5v-15h-291v15l21 6q29 8 35 16.5t6 41.5v394h-66v11l66 38v19q0 95 63 151.5t178 56.5q106 0 133 -55q74 68 206 68q74 0 118.5 -26.5t44.5 -73.5q0 -25 -20 -42.5t-55 -17.5 q-43 0 -60 20.5t-27 82.5q-3 17 -8.5 23t-17.5 6q-74 0 -74 -130v-82h128l175 13l8 -5q-4 -52 -4 -126v-326q0 -34 6 -42.5t35 -14.5l20 -6v-15h-288v15l18 5q27 6 31.5 14t4.5 44v332q0 42 -8.5 52.5t-39.5 10.5h-86v-395q0 -34 5 -43t29 -15l22 -5v-15h-283zM372 522v10 q0 37 9 70q-35 1 -48.5 19.5t-17.5 66.5q-2 20 -6.5 27t-13.5 7q-59 0 -59 -116v-84h136z"/>
<glyph glyph-name="f_f_l" unicode="ffl" horiz-adv-x="918" d="M318 0v15l18 5q25 6 30.5 14.5t5.5 43.5v395h-136v-394q0 -35 5 -44t29 -15l22 -5v-15h-290v15l21 6q28 8 34 16.5t6 41.5v394h-65v11l65 38v19q0 95 63 151.5t179 56.5q99 0 129 -49q70 62 196 62q106 0 137 -46l81 41l9 -5l-2 -36q-2 -46 -2 -86v-551q0 -32 7 -40.5 t37 -17.5l20 -6v-15h-291v15l18 5q26 6 31 14t5 45v545q-23 6 -33.5 23.5t-13.5 52.5q-2 22 -6.5 28t-14.5 6q-68 0 -68 -118v-94h98l-7 -49h-91v-395q0 -33 5.5 -42.5t29.5 -15.5l22 -5v-15h-283zM372 522v29q0 24 5 51q-32 2 -45 20.5t-17 65.5q-2 21 -6.5 27.5t-14.5 6.5 q-58 0 -58 -116v-84h136z"/>
<glyph glyph-name="f_b" unicode="fb" horiz-adv-x="926" d="M2 0v15l21 6q28 8 34 16t6 41v395h-65v11l65 38v29q0 96 67.5 153.5t191.5 57.5q105 0 136 -46l81 41l8 -5l-2 -36q-2 -46 -2 -86v-167h2q77 73 166 73q80 0 137.5 -61t57.5 -185q0 -152 -81 -227t-218 -75q-147 0 -237 63v574q-22 6 -32 23t-13 52q-2 22 -6.5 28 t-14.5 6q-68 0 -68 -118v-94h86l-7 -49h-79v-395q0 -32 5.5 -40t31.5 -14l33 -9v-15h-304zM620 15q56 0 82.5 50.5t26.5 188.5q0 109 -29 151.5t-94 42.5q-30 0 -63 -11v-383q30 -39 77 -39z"/>
<glyph glyph-name="f_f_b" unicode="ffb" horiz-adv-x="1234" d="M305 749q99 0 129 -49q70 62 196 62q103 0 137 -46l80 41l8 -5l-2 -36q-2 -46 -2 -86v-167h3q77 73 165 73q81 0 138 -60.5t57 -185.5q0 -152 -81 -227t-218 -75q-146 0 -236 63v574q-23 5 -33 22.5t-13 52.5q-2 22 -6.5 28t-14.5 6q-68 0 -68 -118v-94h87l-7 -49h-80 v-395q0 -32 5.5 -40t31.5 -14l33 -9v-15h-296v15l18 5q25 6 30.5 14.5t5.5 43.5v395h-136v-394q0 -35 5 -44t29 -15l22 -5v-15h-290v15l21 6q28 8 34 16.5t6 41.5v394h-65v11l65 38v19q0 95 63 151.5t179 56.5zM928 15q56 0 82.5 50.5t26.5 188.5q0 109 -29 151.5t-94 42.5 q-30 0 -63 -11v-383q30 -39 77 -39zM372 522v29q0 24 5 51q-32 2 -45 20.5t-17 65.5q-2 21 -6.5 27.5t-14.5 6.5q-58 0 -58 -116v-84h136z"/>
<glyph glyph-name="f_f_h" unicode="ffh" horiz-adv-x="1236" d="M318 0v15l18 5q25 6 30.5 14.5t5.5 43.5v395h-136v-394q0 -35 5 -44t29 -15l22 -5v-15h-290v15l21 6q28 8 34 16.5t6 41.5v394h-65v11l65 38v19q0 95 63 151.5t179 56.5q99 0 129 -49q70 62 196 62q106 0 137 -46l82 41l8 -5l-2 -36q-2 -46 -2 -86v-166h3q99 72 189 72 q61 0 95 -34t34 -100v-324q0 -33 6 -41t36 -16l20 -6v-15h-289v15l18 5q26 6 31.5 14.5t5.5 43.5v292q0 43 -15.5 60t-49.5 17q-48 0 -84 -12v-357q0 -35 5.5 -43.5t31.5 -14.5l18 -5v-15h-282v15l18 5q26 6 31 14.5t5 43.5v546q-23 6 -33.5 23.5t-13.5 52.5q-2 22 -6.5 28 t-14.5 6q-68 0 -68 -118v-94h87l-7 -49h-80v-395q0 -34 5 -43t30 -15l22 -5v-15h-283zM372 522v29q0 24 5 51q-32 2 -45 20.5t-17 65.5q-2 21 -6.5 27.5t-14.5 6.5q-58 0 -58 -116v-84h136z"/>
<glyph glyph-name="f_f_j" unicode="ffj" horiz-adv-x="900" d="M305 749q106 0 133 -55q74 68 206 68q73 0 117.5 -26.5t44.5 -73.5q0 -25 -19.5 -42.5t-54.5 -17.5q-43 0 -60.5 20.5t-27.5 82.5q-2 17 -7.5 23t-18.5 6q-74 0 -74 -130v-82h129l175 13l7 -5q-4 -52 -4 -126v-385q0 -100 -60.5 -160.5t-159.5 -60.5q-70 0 -106.5 26 t-36.5 70q0 29 18.5 46t51.5 17q36 0 52.5 -20.5t22.5 -81.5q2 -18 5 -23.5t11 -5.5q30 0 30 71v513q0 42 -8.5 52.5t-40.5 10.5h-86v-395q0 -32 5.5 -40t31.5 -14l33 -9v-15h-296v15l18 5q25 6 30.5 14.5t5.5 43.5v395h-136v-394q0 -35 5 -44t29 -15l22 -5v-15h-290v15 l21 6q28 8 34 16.5t6 41.5v394h-65v11l65 38v19q0 95 63 151.5t179 56.5zM372 522v10q0 37 9 70q-35 1 -48.5 19.5t-17.5 66.5q-2 21 -6.5 27.5t-14.5 6.5q-58 0 -58 -116v-84h136z"/>
<glyph glyph-name="f_f_k" unicode="ffk" horiz-adv-x="1210" d="M317 0v15l18 5q26 6 31 14.5t5 43.5v395h-136v-394q0 -33 5.5 -43t29.5 -16l22 -5v-15h-290v15l20 6q29 7 35 15.5t6 42.5v394h-65v11l65 38v19q0 95 62.5 151.5t179.5 56.5q97 0 129 -49q68 62 196 62q105 0 137 -47l82 42l8 -5l-2 -36q-2 -46 -2 -86v-551 q0 -35 5.5 -44t29.5 -15l17 -5v-15h-279v15l18 5q25 6 30.5 14.5t5.5 44.5v545q-23 6 -33.5 23.5t-13.5 52.5q-2 22 -6.5 28t-14.5 6q-68 0 -68 -118v-94h86l-7 -49h-79v-395q0 -34 4.5 -43t29.5 -15l22 -5v-15h-283zM1219 0h-210q-92 121 -144 245v10l108 120q52 57 52 86 t-46 41l-15 5v15h224v-16l-11 -3q-47 -11 -93 -58l-95 -95q36 -75 91 -165.5t91 -136.5q9 -12 13 -16t10.5 -8t15.5 -6l9 -3v-15zM371 522v29q0 24 5 51q-32 2 -45 20.5t-16 65.5q-2 21 -6.5 27.5t-14.5 6.5q-59 0 -59 -116v-84h136z"/>
<glyph glyph-name="f_h" unicode="fh" horiz-adv-x="928" d="M2 0v15l21 6q28 8 34 16t6 41v395h-65v11l65 38v29q0 96 67.5 153.5t191.5 57.5q105 0 137 -47l82 42l8 -5l-2 -36q-2 -46 -2 -86v-166h3q99 72 188 72q62 0 96 -34t34 -100v-324q0 -34 6 -41t35 -16l21 -6v-15h-289v15l18 5q26 6 31 14.5t5 43.5v292q0 43 -15.5 60 t-48.5 17q-50 0 -84 -12v-357q0 -35 5.5 -43.5t30.5 -14.5l19 -5v-15h-282v15l18 5q25 6 30.5 15t5.5 43v546q-23 6 -33.5 23.5t-13.5 52.5q-2 22 -6.5 28t-14.5 6q-68 0 -68 -118v-94h86l-7 -49h-79v-395q0 -34 4.5 -43t29.5 -15l22 -5v-15h-290z"/>
<glyph glyph-name="f_j" unicode="fj" horiz-adv-x="592" d="M543 404v-385q0 -100 -60.5 -160.5t-159.5 -60.5q-70 0 -106.5 26t-36.5 70q0 29 18.5 46t51.5 17q36 0 53 -21t21 -81q2 -18 5 -23.5t12 -5.5q15 0 22 15.5t7 55.5v513q0 42 -8.5 52.5t-39.5 10.5h-86v-395q0 -32 5.5 -40t31.5 -14l33 -9v-15h-304v15l21 6q28 8 34 16 t6 41v395h-65v11l65 38v10q0 104 72 167t200 63q74 0 118.5 -26.5t44.5 -73.5q0 -25 -20 -42.5t-55 -17.5q-42 0 -59.5 20.5t-27.5 82.5q-2 17 -7.5 23t-18.5 6q-74 0 -74 -130v-82h128l176 13l7 -5q-4 -52 -4 -126z"/>
<glyph glyph-name="f_k" unicode="fk" horiz-adv-x="902" d="M2 0v15l20 6q29 8 35 15.5t6 41.5v395h-65v11l65 38v29q0 96 67.5 153.5t190.5 57.5q106 0 137 -46l82 41l9 -5l-2 -36q-2 -46 -2 -86v-551q0 -35 5 -44t29 -15l17 -5v-15h-279v15l18 5q26 6 31 14.5t5 44.5v545q-23 6 -33.5 23.5t-13.5 52.5q-2 22 -6.5 28t-14.5 6 q-68 0 -68 -118v-94h87l-7 -49h-80v-395q0 -34 5 -43t30 -15l22 -5v-15h-290zM911 0h-211q-88 116 -144 245v10l109 120q51 58 51 86q0 29 -45 41l-16 5v15h225v-16l-12 -3q-45 -10 -93 -58l-95 -95q38 -78 92.5 -168.5t90.5 -133.5q20 -26 38 -30l10 -3v-15z"/>
<glyph glyph-name=".notdef" horiz-adv-x="500"/>
<glyph glyph-name=".null" horiz-adv-x="0"/>
<glyph glyph-name="nonmarkingreturn" horiz-adv-x="333"/>
<glyph glyph-name="NULL" horiz-adv-x="0"/>
<glyph glyph-name="NULL" horiz-adv-x="0"/>
<glyph glyph-name="CR" unicode=" " horiz-adv-x="187"/>
<glyph glyph-name="space" unicode=" " horiz-adv-x="187"/>
<glyph glyph-name="exclam" unicode="!" horiz-adv-x="274" d="M127 217l-85 339q-21 72 6.5 109.5t87.5 37.5t88.5 -38t7.5 -109l-85 -339h-20zM50 79q0 38 25 62t62 24q35 0 61 -24.5t26 -61.5q0 -35 -26.5 -60.5t-60.5 -25.5q-36 0 -61.5 25t-25.5 61z"/>
<glyph glyph-name="quotedbl" unicode=""" horiz-adv-x="363" d="M93 450l-56 153q-21 53 0 79.5t63 26.5q41 0 60.5 -26t0.5 -80l-51 -153h-17zM253 450l-51 153q-19 54 0.5 80t61.5 26t61 -26.5t0 -79.5l-55 -153h-17z"/>
<glyph glyph-name="numbersign" unicode="#" horiz-adv-x="456" d="M202 0l44 192h-109l-43 -192h-32l43 192h-90l27 109h89l23 99h-90l25 109h90l42 184h32l-42 -184h108l43 184h32l-43 -184h90l-26 -109h-89l-22 -99h90l-26 -109h-90l-44 -192h-32zM185 400l-22 -99h109l22 99h-109z"/>
<glyph glyph-name="dollar" unicode="$" horiz-adv-x="520" d="M14 110q0 67 73 67q39 0 59 -19t28 -76q4 -37 15.5 -50t43.5 -15v248q-118 42 -165 95.5t-47 131.5q0 84 63.5 142t160.5 66v65h30v-64q103 0 154 -32t51 -79q0 -29 -19.5 -46t-50.5 -17q-41 0 -57.5 19t-23.5 71q-4 31 -13.5 42.5t-40.5 13.5v-226q125 -48 176.5 -100.5 t51.5 -132.5q0 -90 -64.5 -153.5t-176.5 -69.5v-96h-29v95q-219 4 -219 120zM369 131q0 82 -107 124v-238q47 2 77 32t30 82zM148 574q0 -40 22.5 -67t74.5 -48v214q-97 -7 -97 -99z"/>
<glyph glyph-name="percent" unicode="%" horiz-adv-x="720" d="M68 -50l526 764h39l-525 -764h-40zM195 358q-74 0 -123.5 43t-49.5 126q0 60 30 102t68.5 58.5t78.5 16.5q71 0 123 -45t52 -126q0 -86 -53.5 -130.5t-125.5 -44.5zM198 384q33 0 43 29t10 113q0 90 -11 121t-42 31q-29 0 -41.5 -30t-12.5 -114q0 -87 11 -118.5t43 -31.5 zM519 -12q-74 0 -123 43t-49 126q0 46 17 81.5t44 55.5t56.5 30t58.5 10q72 0 123.5 -45t51.5 -126q0 -86 -53.5 -130.5t-125.5 -44.5zM522 14q33 0 43 29t10 113q0 90 -11 121t-42 31q-29 0 -41.5 -30t-12.5 -114q0 -87 11 -118.5t43 -31.5z"/>
<glyph glyph-name="ampersand" unicode="&" horiz-adv-x="722" d="M547 573q0 -54 -48 -92.5t-131 -70.5q88 -134 168 -229q37 64 37 119q0 43 -44 56l-24 7v16h213v-16l-21 -6q-27 -8 -46.5 -32t-52.5 -82q-23 -48 -45 -83q30 -36 93 -103q29 -29 56 -38l12 -3v-16h-254q-14 12 -38 39q-84 -51 -181 -51q-114 0 -172 45t-58 131 q0 129 176 197q-40 78 -40 139q0 87 65 145.5t158 58.5q84 0 130.5 -37.5t46.5 -93.5zM405 60q-109 122 -204 278q-27 -34 -27 -103q0 -85 40.5 -140t105.5 -55q43 0 85 20zM297 584q0 -75 59 -157q78 49 78 146q0 47 -16.5 76t-48.5 29q-33 0 -52.5 -25t-19.5 -69z"/>
<glyph glyph-name="quotesingle" unicode="'" horiz-adv-x="200" d="M92 450l-55 153q-21 53 0 79.5t64 26.5q42 0 62 -26.5t1 -79.5l-55 -153h-17z"/>
<glyph glyph-name="parenleft" unicode="(" horiz-adv-x="301" d="M291 -132l-10 -9q-246 175 -246 441q0 74 23.5 146.5t62 128.5t79 98t81.5 72l9 -9q-67 -67 -109.5 -178t-42.5 -236q0 -278 153 -454z"/>
<glyph glyph-name="parenright" unicode=")" horiz-adv-x="301" d="M11 736l9 9q42 -30 82 -71.5t78.5 -97t62 -128t23.5 -148.5q0 -265 -246 -441l-10 10q153 172 153 445q0 132 -42.5 244t-109.5 178z"/>
<glyph glyph-name="asterisk" unicode="*" horiz-adv-x="338" d="M73 414q-15 9 -20.5 25t2.5 33.5t31 28.5l79 44l-87 -10q-40 -5 -54 15t-7 46t29 32t55 -21l65 -58l-38 82q-15 39 -2.5 57.5t43.5 18.5q28 0 41.5 -19t-3.5 -57l-38 -82l66 60q32 26 55 19.5t30 -32.5t-7.5 -46t-54.5 -15l-87 10l79 -45q23 -13 30 -30t1.5 -31 t-18.5 -24q-18 -17 -44.5 -7t-32.5 47l-18 88l-18 -89q-4 -26 -18 -38t-30 -11.5t-29 9.5z"/>
<glyph glyph-name="plus" unicode="+" horiz-adv-x="474" d="M221 138v192h-179v29h179v191h33v-191h178v-29h-178v-192h-33z"/>
<glyph glyph-name="comma" unicode="," horiz-adv-x="224" d="M18 -109l-4 13q54 19 85 56.5t33 85.5q-13 -28 -46 -28q-29 0 -47 18.5t-18 49.5q0 35 25 56.5t60 21.5q42 0 70 -27t28 -78q0 -66 -50 -109.5t-136 -58.5z"/>
<glyph glyph-name="hyphen" unicode="-" horiz-adv-x="268" d="M17 228l10 105h224l-12 -105h-222z"/>
<glyph glyph-name="period" unicode="." horiz-adv-x="219" d="M22 79q0 38 25 62t62 24q36 0 61.5 -24.5t25.5 -61.5q0 -36 -26 -61t-61 -25q-36 0 -61.5 25t-25.5 61z"/>
<glyph glyph-name="slash" unicode="/" horiz-adv-x="374" d="M363 734l-328 -864h-35l328 864h35z"/>
<glyph glyph-name="zero" unicode="0" horiz-adv-x="680" d="M336 -12q-135 0 -223.5 89.5t-88.5 260.5q0 96 30.5 170t79.5 115t102.5 61.5t106.5 20.5q129 0 221 -92.5t92 -262.5q0 -92 -28 -164t-74.5 -114t-102 -63t-115.5 -21zM341 16q63 0 87.5 68.5t24.5 251.5q0 138 -12.5 213t-35.5 101.5t-64 26.5q-39 0 -62.5 -24 t-37.5 -97t-14 -203q0 -133 12 -206.5t35.5 -102t66.5 -28.5z"/>
<glyph glyph-name="one" unicode="1" horiz-adv-x="390" d="M11 0v15l37 8q33 8 40.5 19t7.5 56v448l-81 18v15q189 35 262 123l17 -6v-598q0 -45 7.5 -56t40.5 -19l37 -8v-15h-368z"/>
<glyph glyph-name="two" unicode="2" horiz-adv-x="531" d="M8 0v96q123 98 188 166q63 68 90.5 131t27.5 144q0 74 -19.5 107t-58.5 33q-26 0 -35 -11.5t-11 -44.5q-4 -68 -25 -91t-72 -23q-35 0 -54.5 18t-19.5 49q0 56 62.5 93.5t170.5 37.5q121 0 189.5 -49.5t68.5 -145.5q0 -52 -29.5 -100.5t-88.5 -94t-124.5 -83.5 t-160.5 -85v-3h292q38 0 51 12t37 68h17l-14 -224h-482z"/>
<glyph glyph-name="three" unicode="3" horiz-adv-x="549" d="M232 -12q-221 0 -221 122q0 32 21.5 50t58.5 18q43 0 61.5 -24t22.5 -89q2 -30 11.5 -39.5t34.5 -9.5q102 0 102 181q0 89 -28 119.5t-92 30.5h-48v30h43q61 0 88 34t27 118q0 79 -16 113.5t-57 34.5q-22 0 -30.5 -8.5t-10.5 -29.5q-6 -64 -25.5 -88t-63.5 -24 q-73 0 -73 62q0 54 57 85t160 31q113 0 180 -43.5t67 -122.5q0 -61 -43.5 -106.5t-130.5 -60.5v-3q199 -14 199 -174q0 -95 -75 -151t-219 -56z"/>
<glyph glyph-name="four" unicode="4" horiz-adv-x="587" d="M212 0v15l31 8q32 8 39.5 20t7.5 55v104h-281v47l347 444h121v-425h100l-7 -66h-93v-104q0 -45 7.5 -57t38.5 -18l35 -8v-15h-346zM68 268h222v286h-3l-219 -283v-3z"/>
<glyph glyph-name="five" unicode="5" horiz-adv-x="520" d="M208 -12q-98 0 -146.5 30.5t-48.5 83.5q0 67 76 67q43 0 62 -23t23 -87q3 -25 12 -34.5t36 -9.5q52 0 80.5 35.5t28.5 105.5q0 77 -40 112t-120 35q-65 0 -107 -20l-12 8l43 402h302q25 0 34.5 8.5t27.5 44.5h18l-21 -192h-344l-13 -127q44 21 139 21q124 0 192 -57 t68 -165q0 -99 -76.5 -168.5t-213.5 -69.5z"/>
<glyph glyph-name="six" unicode="6" horiz-adv-x="608" d="M311 -12q-124 0 -205 81.5t-81 248.5q0 101 31.5 178t84 121t114.5 66t130 22q87 0 133.5 -27t46.5 -78q0 -67 -78 -67q-43 0 -60.5 19.5t-22.5 74.5q-3 31 -10.5 40.5t-27.5 9.5q-43 0 -71.5 -26t-46.5 -94t-22 -183q70 41 154 41q99 0 155 -49t56 -149 q0 -102 -72 -165.5t-208 -63.5zM314 16q48 0 64.5 44.5t16.5 148.5q0 87 -23 120.5t-76 33.5q-37 0 -71 -16v-36q0 -170 18 -232.5t71 -62.5z"/>
<glyph glyph-name="seven" unicode="7" horiz-adv-x="509" d="M305 0h-212q33 164 120.5 294t223.5 255h-327q-32 0 -44 -15t-35 -77h-18l17 236h471v-86q-102 -140 -144.5 -281t-51.5 -326z"/>
<glyph glyph-name="eight" unicode="8" horiz-adv-x="563" d="M273 -12q-120 0 -190 45t-70 119q0 57 39.5 92.5t119.5 66.5v2q-72 33 -101 75.5t-29 104.5q0 92 76.5 152t175.5 60q93 0 161 -40.5t68 -109.5q0 -49 -41 -85t-102 -56v-2q88 -36 129 -85t41 -120q0 -88 -81 -153.5t-196 -65.5zM282 16q55 0 91.5 28t36.5 84 q0 51 -40.5 81t-172.5 88q-45 -58 -45 -130q0 -151 130 -151zM351 429q21 24 31 49.5t10 73.5q0 126 -107 126q-49 0 -78.5 -26t-29.5 -73t38 -79.5t136 -70.5z"/>
<glyph glyph-name="nine" unicode="9" horiz-adv-x="609" d="M298 705q123 0 204 -81.5t81 -248.5q0 -100 -30 -176t-82 -121t-116 -67t-138 -22q-86 0 -132.5 27.5t-46.5 76.5q0 69 77 69q43 0 61 -20t23 -73q3 -32 10.5 -42t28.5 -10q49 0 78 27t45.5 93t20.5 183q-63 -41 -152 -41q-98 0 -155.5 49t-57.5 149q0 101 72.5 164.5 t208.5 63.5zM295 678q-48 0 -65 -45t-17 -150q0 -86 23.5 -119t76.5 -33q41 0 70 16v36q0 170 -17.5 232.5t-70.5 62.5z"/>
<glyph glyph-name="colon" unicode=":" horiz-adv-x="219" d="M22 79q0 38 25 62t62 24q36 0 61.5 -24.5t25.5 -61.5q0 -36 -26 -61t-61 -25q-36 0 -61.5 25t-25.5 61zM22 354q0 38 25 62t62 24q36 0 61.5 -24.5t25.5 -61.5q0 -36 -26 -61t-61 -25q-36 0 -61.5 25t-25.5 61z"/>
<glyph glyph-name="semicolon" unicode=";" horiz-adv-x="224" d="M19 -108l-4 13q53 19 84 56.5t33 85.5q-13 -28 -46 -28q-30 0 -47 18t-17 50q0 35 24.5 56.5t60.5 21.5q42 0 69.5 -27.5t27.5 -77.5q0 -66 -49.5 -109.5t-135.5 -58.5zM22 354q0 38 25 62t62 24q36 0 61.5 -24.5t25.5 -61.5q0 -36 -26 -61t-61 -25q-36 0 -61.5 25 t-25.5 61z"/>
<glyph glyph-name="less" unicode="<" horiz-adv-x="468" d="M415 133l-373 172v30l373 172v-35l-331 -152l331 -153v-34z"/>
<glyph glyph-name="equal" unicode="=" horiz-adv-x="530" d="M46 388v31h438v-31h-438zM46 247v32h438v-32h-438z"/>
<glyph glyph-name="greater" unicode=">" horiz-adv-x="468" d="M426 305l-373 -172v34l332 153l-332 152v35l373 -172v-30z"/>
<glyph glyph-name="question" unicode="?" horiz-adv-x="455" d="M140 217v190q68 21 105 56.5t37 104.5q0 53 -21.5 80t-59.5 27q-16 0 -21.5 -9t-8.5 -37q-6 -51 -25.5 -71t-63.5 -20q-34 0 -51 17.5t-17 45.5q0 48 52.5 75.5t142.5 27.5q104 0 162.5 -48.5t58.5 -138.5q0 -184 -255 -238v-62h-35zM79 79q0 38 25 62t62 24 q35 0 61 -24.5t26 -61.5q0 -35 -26.5 -60.5t-60.5 -25.5q-36 0 -61.5 25t-25.5 61z"/>
<glyph glyph-name="at" unicode="@" horiz-adv-x="890" d="M658 69q49 0 95 67t46 204t-72.5 219.5t-221.5 82.5q-80 0 -152.5 -28t-129 -79.5t-90 -132t-33.5 -178.5q0 -161 82.5 -248.5t246.5 -87.5q136 0 242 50v-18q-41 -25 -112.5 -44t-158.5 -19q-165 0 -272.5 91.5t-107.5 256.5q0 96 42.5 183.5t110.5 148.5t156 96.5 t177 35.5q165 0 263.5 -86.5t98.5 -230.5q0 -151 -83.5 -234.5t-202.5 -83.5q-99 0 -104 98h-3q-27 -41 -68.5 -69.5t-89.5 -28.5q-103 0 -103 135q0 131 90 230t195 99q71 0 124 -45h4l55 39l8 -3q-2 -6 -8 -26q-11 -40 -20 -92l-37 -196q-11 -51 -4.5 -78.5t37.5 -27.5z M401 115q35 0 71 47l56 286q-14 27 -38 27q-47 0 -85 -100t-38 -202q0 -58 34 -58z"/>
<glyph glyph-name="A" unicode="A" horiz-adv-x="679" d="M-7 0v15l14 5q26 8 38 26t40 92l202 555h102l203 -557q26 -70 37.5 -90t32.5 -26l18 -5v-15h-359v15l27 7q38 9 38 44q0 36 -19 84l-25 78h-186l-25 -73q-20 -58 -20 -86q0 -19 10 -29t39 -18l25 -7v-15h-192zM252 509l-85 -249h165l-77 249h-3z"/>
<glyph glyph-name="B" unicode="B" horiz-adv-x="654" d="M7 0v15l30 7q21 6 27.5 10.5t10.5 18.5t4 47v497q0 46 -6.5 56.5t-35.5 19.5l-30 7v15h330q142 0 207.5 -39.5t65.5 -124.5q0 -130 -179 -156v-3q105 -13 158 -54t53 -121q0 -195 -281 -195h-354zM343 32q51 0 73 37.5t22 128.5q0 85 -26 118t-88 33h-49v-254 q0 -38 15 -50.5t53 -12.5zM275 378h43q57 0 79.5 31t22.5 114q0 80 -21.5 109t-71.5 29q-32 0 -52 -5v-278z"/>
<glyph glyph-name="C" unicode="C" horiz-adv-x="623" d="M365 -12q-158 0 -251 90.5t-93 262.5q0 93 29.5 164.5t81 114t117 64t142.5 21.5q109 0 185 -24l15 -221h-17q-51 106 -90 159q-21 31 -43.5 44.5t-59.5 13.5q-152 0 -152 -316q0 -191 35 -268t110 -77q45 0 72 13.5t53 50.5q27 38 82 159h17l-12 -212q-99 -39 -221 -39z "/>
<glyph glyph-name="D" unicode="D" horiz-adv-x="728" d="M7 0v15l30 7q21 6 27.5 10.5t10.5 18.5t4 47v497q0 46 -6.5 56.5t-35.5 19.5l-30 7v15h351q165 0 257 -82.5t92 -250.5q0 -169 -94.5 -264.5t-258.5 -95.5h-347zM342 30q81 0 119.5 76t38.5 230q0 183 -38 254.5t-122 71.5q-41 0 -62 -7v-559q0 -41 13 -53.5t51 -12.5z "/>
<glyph glyph-name="E" unicode="E" horiz-adv-x="602" d="M454 492v-270h-16q-10 44 -31 91q-10 19 -26.5 25t-68.5 6h-34v-242q0 -47 14 -59t75 -12q58 0 80.5 12t46.5 51q34 53 75 157h18l-14 -251h-566v15l30 7q21 6 27.5 10.5t10.5 18.5t4 47v497q0 46 -6.5 56.5t-35.5 19.5l-30 7v15h546l9 -213h-17q-36 83 -62 124 q-21 35 -45.5 46.5t-75.5 11.5q-58 0 -84 -7v-281h35q50 0 66.5 6t27.5 25q18 34 31 87h16z"/>
<glyph glyph-name="F" unicode="F" horiz-adv-x="572" d="M309 334h-31v-236q0 -48 6.5 -58.5t37.5 -16.5l40 -8v-15h-355v15l30 7q21 6 27.5 10.5t10.5 18.5t4 47v497q0 46 -6.5 56.5t-35.5 19.5l-30 7v15h541l10 -222h-17q-45 100 -59 123q-23 40 -45 54t-74 14q-57 0 -85 -7v-291h32q51 0 67.5 6.5t29.5 26.5q14 27 30 89h16 v-279h-16q-16 64 -30 90q-15 24 -30.5 30.5t-67.5 6.5z"/>
<glyph glyph-name="G" unicode="G" horiz-adv-x="680" d="M384 -12q-181 0 -272 91t-91 265q0 95 31.5 166.5t87 113t123 61.5t146.5 20q107 0 190 -25l11 -219h-17q-44 97 -78 145q-29 42 -55.5 56.5t-67.5 14.5q-85 0 -125 -77t-40 -240q0 -189 31.5 -266.5t115.5 -77.5q44 0 71 20v162q0 46 -7 58t-37 18l-29 7v15h312v-15 l-25 -6q-19 -6 -23.5 -17.5t-4.5 -57.5v-171q-41 -17 -110.5 -29t-136.5 -12z"/>
<glyph glyph-name="H" unicode="H" horiz-adv-x="765" d="M7 0v15l30 7q21 6 27.5 10.5t10.5 18.5t4 47v497q0 46 -6.5 56.5t-35.5 19.5l-30 7v15h341v-15l-27 -7q-31 -8 -37 -19t-6 -57v-224h209v224q0 45 -7 56t-36 20l-27 7v15h341v-15l-30 -7q-22 -6 -28.5 -10.5t-10.5 -18.5t-4 -47v-497q0 -46 6.5 -56.5t36.5 -19.5l30 -7 v-15h-341v15l27 7q29 9 36 20t7 56v240h-209v-240q0 -45 7 -56t36 -20l27 -7v-15h-341z"/>
<glyph glyph-name="I" unicode="I" horiz-adv-x="362" d="M7 0v15l32 7q29 6 36 18t7 58v497q0 46 -7 58t-36 18l-32 7v15h348v-15l-32 -7q-29 -6 -36 -18t-7 -58v-497q0 -46 7 -58t36 -18l32 -7v-15h-348z"/>
<glyph glyph-name="J" unicode="J" horiz-adv-x="503" d="M165 -10q-82 0 -126.5 30.5t-44.5 78.5q0 38 21.5 57.5t60.5 19.5q45 0 65 -26.5t26 -104.5q1 -25 21 -25q39 0 39 91v484q0 47 -6.5 58.5t-34.5 17.5l-31 7v15h343v-15l-30 -7q-31 -8 -37 -18t-6 -58v-350q0 -115 -69 -185t-191 -70z"/>
<glyph glyph-name="K" unicode="K" horiz-adv-x="720" d="M728 0h-242q-108 142 -189 326v17l182 213q35 41 35 74q0 28 -39 39l-29 9v15h243v-15l-24 -6q-29 -8 -52.5 -25.5t-63.5 -61.5l-117 -132q53 -111 119.5 -223t121.5 -182q21 -24 40 -28l15 -5v-15zM7 0v15l30 7q21 6 27.5 10.5t10.5 18.5t4 47v497q0 46 -6.5 56.5 t-35.5 19.5l-30 7v15h341v-15l-27 -7q-31 -8 -37 -19t-6 -57v-497q0 -45 7 -56t36 -20l27 -7v-15h-341z"/>
<glyph glyph-name="L" unicode="L" horiz-adv-x="584" d="M7 0v15l30 7q21 6 27.5 10.5t10.5 18.5t4 47v497q0 46 -6.5 56.5t-35.5 19.5l-30 7v15h348v-15l-34 -7q-30 -6 -36.5 -17.5t-6.5 -58.5v-499q0 -42 13 -54t66 -12q42 0 62.5 5t33 17t29.5 41q35 59 77 170h18l-18 -263h-552z"/>
<glyph glyph-name="M" unicode="M" horiz-adv-x="856" d="M7 0v15l30 8q27 6 34.5 23t7.5 72v477q0 45 -7 56t-36 20l-29 7v15h276l144 -392h3l146 392h273v-15l-29 -7q-22 -6 -28.5 -10.5t-10.5 -18.5t-4 -47v-497q0 -46 6.5 -56.5t36.5 -19.5l29 -7v-15h-346v15l30 7q22 6 29 10.5t11 18.5t4 47v490h-4l-210 -572h-39l-204 572 h-4v-465q0 -60 7 -76t39 -24l31 -8v-15h-186z"/>
<glyph glyph-name="N" unicode="N" horiz-adv-x="670" d="M534 -1l-415 585h-3v-461q0 -58 8 -75.5t41 -24.5l33 -8v-15h-191v15l30 8q28 8 35 24t7 71v477q0 39 -8.5 54t-34.5 22l-29 7v15h268l276 -384h3v261q0 59 -7.5 75t-40.5 24l-36 9v15h193v-15l-30 -8q-27 -6 -34.5 -23.5t-7.5 -71.5v-576h-57z"/>
<glyph glyph-name="O" unicode="O" horiz-adv-x="727" d="M361 -12q-67 0 -127 21t-108 62.5t-76.5 110t-28.5 156.5q0 95 31 168.5t82.5 115t110.5 62.5t122 21q54 0 102.5 -12t92.5 -38.5t75.5 -66.5t50.5 -100t19 -134q0 -96 -31 -169.5t-82.5 -115t-110.5 -61.5t-122 -20zM364 16q72 0 104 69.5t32 246.5q0 192 -32 268.5 t-105 76.5q-70 0 -103 -71t-33 -246q0 -193 32 -268.5t105 -75.5z"/>
<glyph glyph-name="P" unicode="P" horiz-adv-x="646" d="M7 0v15l30 7q21 6 27.5 10.5t10.5 18.5t4 47v497q0 46 -6.5 56.5t-36.5 19.5l-29 7v15h339q148 0 217.5 -46.5t69.5 -152.5q0 -91 -64 -149t-197 -58q-42 0 -71 8v20q79 2 104.5 37t25.5 135q0 106 -20.5 141t-78.5 35q-30 0 -54 -6v-559q0 -44 7.5 -54.5t38.5 -19.5 l38 -9v-15h-355z"/>
<glyph glyph-name="Q" unicode="Q" horiz-adv-x="727" d="M583 -167q-58 0 -102.5 14t-94.5 48q-40 26 -137 112q-101 27 -164.5 112t-63.5 219q0 95 31 168.5t82.5 115t110.5 62.5t122 21q68 0 127 -19.5t108 -60t77 -110t28 -161.5q0 -261 -228 -328v-3q44 -39 84 -67q62 -41 120 -41q46 0 84 17v-14q-25 -33 -73.5 -59 t-110.5 -26zM364 12q72 0 104 71.5t32 248.5q0 192 -32 268.5t-105 76.5q-71 0 -103.5 -71t-32.5 -246q0 -193 32.5 -270.5t104.5 -77.5z"/>
<glyph glyph-name="R" unicode="R" horiz-adv-x="703" d="M7 0v15l30 7q21 6 27.5 10.5t10.5 18.5t4 47v497q0 46 -6.5 56.5t-35.5 19.5l-30 7v15h349q144 0 210.5 -43.5t66.5 -134.5q0 -68 -31.5 -107t-98.5 -60v-3q32 -72 78.5 -158.5t81.5 -133.5q18 -26 43 -33l18 -5v-15h-254q-68 99 -154 311q-22 0 -37 1v-214 q0 -47 6 -58.5t33 -17.5l29 -7v-15h-340zM321 340q59 0 86 34t27 124q0 88 -21.5 125.5t-75.5 37.5q-33 0 -58 -5v-312q15 -4 42 -4z"/>
<glyph glyph-name="S" unicode="S" horiz-adv-x="513" d="M233 -12q-137 0 -206 32l-12 204h18q45 -92 81 -140q28 -36 57 -52t72 -16q51 0 79 28.5t28 79.5t-31 82t-112 61q-102 36 -145.5 86t-43.5 132q0 94 71 157t184 63q109 0 175 -30l10 -183h-19q-40 90 -77 132q-26 30 -48.5 41.5t-55.5 11.5q-49 0 -76.5 -25.5 t-27.5 -72.5q0 -43 29 -71.5t106 -58.5q118 -45 164.5 -93t46.5 -128q0 -99 -72 -169.5t-195 -70.5z"/>
<glyph glyph-name="T" unicode="T" horiz-adv-x="635" d="M441 663h-24v-565q0 -46 7.5 -57t41.5 -19l32 -7v-15h-361v15l32 7q34 9 42 19.5t8 56.5v565h-25q-34 0 -51.5 -12t-34.5 -41q-29 -46 -79 -164h-17l8 247h595l9 -247h-18q-50 121 -78 164q-19 32 -34.5 42.5t-52.5 10.5z"/>
<glyph glyph-name="U" unicode="U" horiz-adv-x="688" d="M371 -12q-144 0 -219 53t-75 179v375q0 33 -4 47t-11 18.5t-29 10.5l-29 7v15h344v-15l-30 -7q-18 -5 -23.5 -7.5t-12 -10.5t-7.5 -20.5t-1 -37.5v-392q0 -82 37.5 -120.5t118.5 -38.5q77 0 111 43t34 126v357q0 58 -8 74.5t-41 24.5l-36 9v15h194v-15l-31 -8 q-25 -6 -33 -24t-8 -71v-370q0 -98 -59 -157.5t-182 -59.5z"/>
<glyph glyph-name="V" unicode="V" horiz-adv-x="664" d="M295 0l-218 572q-19 54 -32 74t-35 26l-23 6v15h355v-15l-28 -7q-36 -9 -36 -40q0 -18 20 -76l123 -360h3l118 359q18 54 18 75q0 32 -40 42l-30 7v15h187v-15l-24 -8q-21 -6 -33 -27t-31 -73l-199 -570h-95z"/>
<glyph glyph-name="W" unicode="W" horiz-adv-x="1011" d="M785 204l106 351q15 47 15 73q0 36 -40 43l-31 7v15h190v-15l-18 -6q-26 -8 -40 -30t-35 -84l-183 -558h-95l-135 420h-3l-141 -420h-100l-206 583q-15 41 -20.5 53.5t-15 23t-25.5 12.5l-24 6v15h343v-15l-24 -6q-19 -6 -28 -14.5t-9 -24.5q0 -20 20 -78l120 -351h3 l91 271l-41 126q-12 36 -22.5 50.5t-32.5 20.5l-20 6v15h338v-15l-33 -8q-34 -7 -34 -42q0 -24 17 -73l110 -351h3z"/>
<glyph glyph-name="X" unicode="X" horiz-adv-x="686" d="M337 569l83 -155h2l83 154q24 44 24 68q0 26 -39 36l-27 6v15h205v-15l-16 -5q-26 -8 -44 -26.5t-47 -67.5l-119 -196l161 -287q5 -10 10 -18.5l9 -15t8.5 -11.5t6.5 -8.5t7 -7t6 -5t6 -3.5t6 -2.5t6.5 -2.5t6.5 -2l14 -5v-15h-365v15l34 7q32 4 32 33q0 21 -26 68 l-92 169h-2l-92 -158q-34 -55 -34 -79q0 -25 33 -33l32 -7v-15h-212v15l14 4q29 9 51 27.5t50 61.5l140 214l-157 277q-18 34 -31 48t-36 24l-17 7v15h368v-15l-36 -8q-32 -8 -32 -31q0 -25 26 -70z"/>
<glyph glyph-name="Y" unicode="Y" horiz-adv-x="637" d="M154 0v15l32 7q34 9 41.5 19.5t7.5 56.5v198l-165 295q-36 62 -46 71q-7 6 -20 10l-18 6v15h366v-15l-32 -7q-44 -11 -44 -42q0 -24 17 -55l120 -231h3l97 220q17 37 17 64q0 32 -42 44l-27 7v15h186v-15l-19 -7q-19 -6 -31.5 -23.5t-36.5 -70.5l-127 -276v-203 q0 -46 7.5 -56.5t41.5 -19.5l33 -7v-15h-361z"/>
<glyph glyph-name="Z" unicode="Z" horiz-adv-x="617" d="M18 0v32l348 628v4h-42q-88 0 -117.5 -9.5t-50.5 -41.5q-38 -56 -82 -161h-18l14 241h517v-32l-352 -628v-4h46q108 0 140.5 10.5t60.5 52.5q29 40 88 164h19l-19 -256h-552z"/>
<glyph glyph-name="bracketleft" unicode="[" horiz-adv-x="310" d="M166 635v-665q0 -48 11.5 -61t55.5 -17l66 -7v-15h-226v864h226v-15l-66 -7q-44 -4 -55.5 -17t-11.5 -60z"/>
<glyph glyph-name="backslash" unicode="\" horiz-adv-x="374" d="M339 -130l-328 864h35l328 -864h-35z"/>
<glyph glyph-name="bracketright" unicode="]" horiz-adv-x="310" d="M144 -30v665q0 47 -11.5 60t-54.5 17l-67 7v15h227v-864h-227v15l67 7q43 4 54.5 17.5t11.5 60.5z"/>
<glyph glyph-name="asciicircum" unicode="^" horiz-adv-x="397" d="M29 439l-9 8l156 249h44l157 -249l-9 -8l-172 126z"/>
<glyph glyph-name="underscore" unicode="_" horiz-adv-x="399" d="M-2 -160v34h403v-34h-403z"/>
<glyph glyph-name="grave" unicode="`" d="M350 585l-4 -10l-183 33q-51 10 -51 59q0 28 18 48.5t44 20.5q30 0 58 -28z"/>
<glyph glyph-name="a" unicode="a" horiz-adv-x="528" d="M157 -12q-67 0 -106 33t-39 91q0 34 12.5 59t38 41t49.5 25t61 18l118 32v99q0 69 -11.5 95.5t-48.5 26.5q-24 0 -33.5 -8t-11.5 -34q-4 -57 -21 -77.5t-58 -20.5q-73 0 -73 60q0 52 58.5 80t170.5 28q201 0 201 -140v-284q0 -30 4 -43t17 -21q21 -10 47 -10v-13 q-47 -37 -122 -37q-89 0 -109 65h-4q-53 -65 -140 -65zM240 55q38 0 51 24v170l-32 -4q-42 -4 -60 -25.5t-18 -73.5q0 -91 59 -91z"/>
<glyph glyph-name="b" unicode="b" horiz-adv-x="603" d="M283 -12q-146 0 -236 63v585q0 39 -5.5 51t-28.5 22l-32 15v11l234 22l9 -5l-2 -36q-2 -46 -2 -86v-64q0 -16 -0.5 -40.5t-0.5 -32.5v-30h3q77 73 165 73q81 0 138.5 -60.5t57.5 -185.5q0 -153 -81 -227.5t-219 -74.5zM296 15q37 0 59.5 18t36.5 72t14 149 q0 109 -29 152.5t-94 43.5q-24 0 -63 -13v-383q30 -39 76 -39z"/>
<glyph glyph-name="c" unicode="c" horiz-adv-x="494" d="M269 -12q-120 0 -187 70.5t-67 192.5q0 73 27 129.5t72 89.5t96.5 49.5t106.5 16.5q80 0 123.5 -26.5t43.5 -77.5q0 -69 -75 -69q-43 0 -59.5 20.5t-20.5 75.5q-4 31 -9.5 39.5t-27.5 8.5q-102 0 -102 -207q0 -118 34 -173t124 -55q67 0 130 34v-17q-22 -35 -79.5 -68 t-129.5 -33z"/>
<glyph glyph-name="d" unicode="d" horiz-adv-x="618" d="M223 -12q-90 0 -146.5 62t-56.5 184q0 78 23.5 137.5t64.5 94.5t92 52.5t111 17.5q41 0 71 -11v111q0 34 -5 43.5t-27 22.5l-40 21v12l242 22l8 -6l-2 -35q-2 -46 -2 -86v-522q0 -38 5 -48.5t30 -18.5l25 -9v-12l-221 -32l-11 8v61h-3q-76 -69 -158 -69zM312 68 q36 0 70 16v381q-24 44 -72 44q-113 0 -113 -231q0 -114 27.5 -162t87.5 -48z"/>
<glyph glyph-name="e" unicode="e" horiz-adv-x="528" d="M280 -12q-133 0 -199 68t-66 199q0 88 40 153.5t99.5 96.5t127.5 31q226 0 233 -242h-329q0 -126 42 -173.5t129 -47.5q74 0 139 35v-17q-31 -41 -87.5 -72t-128.5 -31zM275 510q-41 0 -64 -43t-25 -149l160 10q0 104 -15.5 143t-55.5 39z"/>
<glyph glyph-name="f" unicode="f" horiz-adv-x="342" d="M2 0v15l21 6q28 8 34 16t6 41v395h-65v11l65 38v31q0 95 64.5 152t181.5 57q66 0 103 -22t37 -63q0 -30 -18.5 -46.5t-49.5 -16.5q-36 0 -52 19t-20 67q-2 21 -6 27.5t-14 6.5q-53 0 -53 -116v-96h96l-7 -49h-89v-395q0 -32 5.5 -40t31.5 -14l33 -9v-15h-304z"/>
<glyph glyph-name="g" unicode="g" horiz-adv-x="522" d="M212 -202q-224 0 -224 108q0 37 32 62.5t95 35.5v2q-93 23 -93 102q0 39 23.5 70.5t56.5 50.5v2q-83 43 -83 129q0 82 62 129t156 47q76 0 131 -30q58 56 111 56q29 0 46.5 -14.5t17.5 -43.5q0 -22 -12.5 -36.5t-37.5 -14.5q-22 0 -30.5 8t-15.5 27q-15 40 -63 6v-2 q72 -49 72 -118q0 -81 -62.5 -127.5t-156.5 -46.5q-65 0 -116 20q-20 -20 -20 -45q0 -29 48 -29h194q168 0 168 -135q0 -95 -82.5 -154t-216.5 -59zM234 -175q170 0 170 103q0 38 -22.5 54.5t-72.5 16.5h-171q-27 -21 -27 -78q0 -47 28.5 -71.5t94.5 -24.5zM237 226 q35 0 48 28t13 110q0 86 -13.5 116t-47.5 30t-47 -28.5t-13 -111.5q0 -84 13.5 -114t46.5 -30z"/>
<glyph glyph-name="h" unicode="h" horiz-adv-x="619" d="M427 536q62 0 96 -34t34 -100v-324q0 -34 6 -41t35 -16l21 -6v-15h-289v15l18 5q26 6 31 14.5t5 43.5v292q0 43 -15.5 60t-48.5 17q-48 0 -84 -12v-357q0 -35 5.5 -43.5t31.5 -14.5l18 -5v-15h-289v15l20 6q29 8 35 15.5t6 41.5v558q0 39 -5 50t-29 23l-32 15v11l235 22 l8 -5l-2 -36q-2 -46 -2 -86v-166h3q99 72 188 72z"/>
<glyph glyph-name="i" unicode="i" horiz-adv-x="299" d="M2 0v15l21 6q28 8 34 16t6 41v336q0 32 -5 41.5t-30 25.5l-31 20v9l236 25l7 -5q-4 -55 -4 -125v-327q0 -34 6 -41t35 -16l20 -6v-15h-295zM58 663q0 36 25 58.5t62 22.5q38 0 63 -22.5t25 -58.5q0 -38 -24.5 -59.5t-63.5 -21.5q-38 0 -62.5 22t-24.5 59z"/>
<glyph glyph-name="j" unicode="j" horiz-adv-x="283" d="M234 405v-386q0 -99 -62 -160t-158 -61q-71 0 -109.5 25.5t-38.5 71.5q0 66 73 66q38 0 54.5 -21.5t22.5 -84.5q2 -19 4.5 -24t10.5 -5q31 0 31 71v517q0 31 -5.5 41t-30.5 26l-30 20v9l235 25l7 -5q-4 -53 -4 -125zM56 663q0 36 25 58.5t62 22.5q38 0 63 -22.5t25 -58.5 q0 -38 -24.5 -59.5t-63.5 -21.5q-38 0 -62.5 22t-24.5 59z"/>
<glyph glyph-name="k" unicode="k" horiz-adv-x="593" d="M602 0h-210q-88 116 -144 245v10l109 120q51 58 51 86q0 29 -46 41l-15 5v15h224v-16l-11 -3q-47 -11 -93 -58l-95 -95q38 -78 92.5 -168.5t90.5 -133.5q20 -26 38 -30l9 -3v-15zM236 630v-551q0 -35 5.5 -44t29.5 -15l17 -5v-15h-286v15l20 6q29 7 35 15.5t6 42.5v558 q0 38 -5 49t-29 23l-32 15v11l235 22l8 -5l-2 -36q-2 -46 -2 -86z"/>
<glyph glyph-name="l" unicode="l" horiz-adv-x="303" d="M238 630v-551q0 -32 7 -40.5t37 -17.5l20 -6v-15h-300v15l20 6q31 8 37 16t6 42v557q0 38 -5.5 49.5t-30.5 23.5l-32 15v11l237 22l8 -5l-2 -36q-2 -46 -2 -86z"/>
<glyph glyph-name="m" unicode="m" horiz-adv-x="917" d="M2 0v15l21 6q28 8 34 16.5t6 41.5v334q0 31 -5 41t-28 26l-31 21v9l226 25l8 -5l-1 -72h3q97 78 186 78q91 0 116 -79h3q97 79 189 79q58 0 91.5 -34.5t33.5 -99.5v-323q0 -33 6 -41.5t36 -16.5l21 -6v-15h-286v15l18 5q22 6 27.5 15t5.5 44v291q0 43 -13 59t-47 16 q-49 0 -79 -11q2 -16 2 -42v-313q0 -35 4.5 -43t28.5 -16l16 -5v-15h-272v15l18 5q23 6 28 15t5 44v291q0 44 -12.5 59.5t-45.5 15.5q-46 0 -79 -12v-354q0 -35 5 -44t28 -15l18 -5v-15h-285z"/>
<glyph glyph-name="n" unicode="n" horiz-adv-x="620" d="M2 0v15l21 6q28 8 34 16t6 41v335q0 31 -5 41t-28 26l-31 21v9l226 25l8 -5l-1 -72h3q106 78 192 78q62 0 96 -34t34 -100v-324q0 -34 6 -41t35 -16l21 -6v-15h-290v15l19 5q26 6 31 14.5t5 43.5v291q0 43 -15 59.5t-49 16.5q-50 0 -84 -12v-355q0 -35 5.5 -43.5 t30.5 -14.5l19 -5v-15h-289z"/>
<glyph glyph-name="o" unicode="o" horiz-adv-x="583" d="M291 -12q-117 0 -196.5 70.5t-79.5 201.5q0 93 41.5 157.5t102 91.5t132.5 27q117 0 196.5 -70t79.5 -202q0 -71 -23 -125.5t-62.5 -86.5t-88 -48t-102.5 -16zM294 15q34 0 53 17t30 70.5t11 152.5q0 104 -13 161.5t-32.5 75t-53.5 17.5q-48 0 -71 -49.5t-23 -186.5 q0 -107 11 -164t31 -75.5t57 -18.5z"/>
<glyph glyph-name="p" unicode="p" horiz-adv-x="618" d="M1 -199v16l21 5q28 8 34 16.5t6 41.5v533q0 31 -5 41t-28 26l-30 21v9l226 25l7 -5v-67h4q81 73 167 73t140.5 -61.5t54.5 -184.5q0 -152 -79.5 -227t-211.5 -75q-39 0 -72 10v-118q0 -33 6 -42t33 -15l29 -6v-16h-302zM310 15q57 0 84 50.5t27 187.5q0 108 -28.5 152.5 t-83.5 44.5q-32 0 -74 -13v-385q28 -37 75 -37z"/>
<glyph glyph-name="q" unicode="q" horiz-adv-x="608" d="M314 -199v16l28 6q27 6 33 15t6 42v92v58q0 15 1 22h-3q-71 -63 -160 -63q-86 0 -142.5 61t-56.5 188q0 150 82.5 224t209.5 74q98 0 181 -47h3l49 44l9 -5v-648q0 -33 6 -42t35 -16l21 -5v-16h-302zM309 64q42 0 72 16v391q-25 38 -73 38q-111 0 -111 -231 q0 -120 26.5 -167t85.5 -47z"/>
<glyph glyph-name="r" unicode="r" horiz-adv-x="460" d="M2 0v15l21 6q28 8 34 16.5t6 41.5v335q0 31 -5 40.5t-28 25.5l-31 21v9l226 25l8 -5v-78h2q78 83 147 83q36 0 56.5 -20t20.5 -58t-21 -60t-55 -22q-51 0 -72 49q-6 13 -10.5 17t-13.5 4q-25 0 -51 -21v-345q0 -35 6 -43.5t34 -14.5l27 -5v-16h-301z"/>
<glyph glyph-name="s" unicode="s" horiz-adv-x="430" d="M188 -12q-88 0 -163 21l-5 166h17q34 -64 69 -109q21 -28 42 -39t55 -11q37 0 59 19.5t22 54.5q0 34 -23.5 52.5t-100.5 49.5q-72 27 -106.5 65.5t-34.5 100.5q0 76 56.5 127t159.5 51q87 0 139 -21l6 -141h-15q-45 70 -62 89q-23 25 -40.5 35t-47.5 10q-35 0 -56 -18 t-21 -48q0 -32 22 -50t88 -43q91 -35 128.5 -74.5t37.5 -101.5q0 -83 -59 -134t-167 -51z"/>
<glyph glyph-name="t" unicode="t" horiz-adv-x="360" d="M199 -12q-76 0 -111.5 34.5t-35.5 111.5v339h-55v11q61 21 111.5 69t75.5 104h41v-135h125l-7 -49h-118v-338q0 -43 13.5 -57.5t52.5 -14.5q31 0 67 9v-15q-62 -69 -159 -69z"/>
<glyph glyph-name="u" unicode="u" horiz-adv-x="618" d="M382 91v320q0 33 -5 43t-28 26l-31 21v9l229 25l7 -5v-420q0 -38 6 -49.5t30 -19.5l25 -9v-12l-223 -32l-7 6v71h-3q-102 -77 -192 -77q-60 0 -94.5 34.5t-34.5 99.5v290q0 32 -5 42t-28 26l-30 21v9l228 25l8 -5v-369q0 -82 64 -82q34 0 84 12z"/>
<glyph glyph-name="v" unicode="v" horiz-adv-x="543" d="M237 0l-174 420q-20 47 -30.5 61t-29.5 20l-17 6v15h318v-15l-23 -7q-21 -6 -29 -14.5t-8 -25.5q0 -21 14 -57l89 -239h3l79 228q17 48 17 71q0 25 -37 37l-23 7v15h170v-15l-13 -5q-23 -8 -35.5 -25.5t-32.5 -67.5l-157 -409h-81z"/>
<glyph glyph-name="w" unicode="w" horiz-adv-x="828" d="M761 410l-150 -410h-76l-114 319h-2l-121 -319h-76l-162 421q-17 45 -28.5 60.5t-27.5 19.5l-18 6v15h292v-15l-14 -4q-30 -7 -30 -32q0 -22 16 -67l77 -236h3l73 198l-19 55q-19 49 -27.5 62t-26.5 19l-15 5v15h295v-15l-22 -6q-21 -6 -29 -15t-8 -26q0 -20 11 -56 l76 -236h4l77 235q13 36 13 61q0 26 -33 36l-27 7v15h170v-15l-14 -5q-23 -8 -36.5 -25.5t-30.5 -66.5z"/>
<glyph glyph-name="x" unicode="x" horiz-adv-x="566" d="M363 283l126 -193q29 -44 39 -54.5t31 -16.5l13 -4v-15h-317v15l21 4q31 7 31 29q0 18 -24 56l-73 114h-3l-60 -99q-25 -42 -25 -67q0 -26 34 -33l19 -4v-15h-184v15l22 5q19 5 33.5 17.5t41.5 51.5l103 156l-120 186q-28 42 -39 54.5t-27 16.5l-14 5l1 15h316v-15 l-20 -5q-35 -7 -35 -31q0 -21 23 -54l67 -106h3l53 99q17 31 17 54q0 28 -37 38l-20 5v15h183v-15l-16 -5q-21 -6 -38 -23.5t-42 -58.5z"/>
<glyph glyph-name="y" unicode="y" horiz-adv-x="536" d="M345 180l80 216q17 48 17 65q0 30 -34 39l-26 7v15h167v-15l-18 -7q-17 -6 -28 -23.5t-32 -69.5l-187 -453q-38 -86 -74.5 -122.5t-102.5 -36.5q-41 0 -69.5 21t-28.5 56q0 29 18.5 46t52.5 17q58 0 67 -60q4 -23 10 -26q3 -1 8 -1q18 0 41.5 27t44.5 82l9 22l-198 440 q-21 46 -33.5 62t-26.5 20l-16 6v15h313v-15l-26 -8q-33 -12 -33 -40q0 -13 15 -56l86 -223h4z"/>
<glyph glyph-name="z" unicode="z" horiz-adv-x="500" d="M14 0v36l279 450v4h-53q-53 0 -72.5 -6t-40.5 -31q-13 -14 -73 -115h-14l11 184h433v-34l-279 -452v-4h57q65 0 88 8t45 32q25 27 73 118h16l-18 -190h-452z"/>
<glyph glyph-name="braceleft" unicode="{" horiz-adv-x="333" d="M29 293v23q66 5 93 20.5t27 41.5q0 22 -26.5 117.5t-26.5 124.5q0 58 51 82t176 34v-15q-80 -12 -102 -26.5t-22 -55.5t12 -126t12 -107q0 -40 -31 -63.5t-110 -37.5v-2q81 -15 111 -38.5t30 -65.5q0 -21 -12 -105.5t-12 -125.5q0 -40 23 -56t101 -28v-15 q-126 10 -176.5 35t-50.5 83q0 29 26.5 123.5t26.5 116.5q0 57 -120 66z"/>
<glyph glyph-name="bar" unicode="|" horiz-adv-x="182" d="M75 -130v864h32v-864h-32z"/>
<glyph glyph-name="braceright" unicode="}" horiz-adv-x="334" d="M304 316v-23q-119 -9 -119 -66q0 -22 26 -116.5t26 -123.5q0 -58 -51 -83t-175 -35v15q77 12 100 28t23 56q0 41 -12 125.5t-12 105.5q0 42 30.5 65.5t111.5 38.5v2q-80 14 -111 37t-31 64q0 22 12 107t12 126t-22 55.5t-101 26.5v15q124 -10 175 -34t51 -82 q0 -29 -26 -124.5t-26 -117.5q0 -26 26.5 -41.5t92.5 -20.5z"/>
<glyph glyph-name="asciitilde" unicode="~" horiz-adv-x="372" d="M30 210l-15 7q30 76 52 106t60 30q23 0 81 -13.5t77 -13.5q17 0 28.5 11.5t28.5 38.5l14 -7q-30 -77 -51 -106.5t-59 -29.5q-33 0 -87.5 13.5t-71.5 13.5t-28.5 -11.5t-28.5 -38.5z"/>
<glyph glyph-name="uni00A0" unicode=" " horiz-adv-x="187"/>
<glyph glyph-name="exclamdown" unicode="¡" horiz-adv-x="274" d="M42 51l85 339h20l85 -339q21 -72 -6.5 -109.5t-87.5 -37.5q-61 0 -89 37.5t-7 109.5zM50 528q0 36 26 61t61 25q36 0 61.5 -25t25.5 -61q0 -38 -25 -62t-62 -24q-35 0 -61 24.5t-26 61.5z"/>
<glyph glyph-name="cent" unicode="¢" horiz-adv-x="493" d="M270 -12h-3q-121 0 -188 70t-67 191q0 86 38.5 149.5t94.5 94t125 39.5v64h30v-62q5 1 17 1q80 0 123.5 -26t43.5 -74q0 -65 -67 -65q-39 0 -56 19t-22 68q-4 26 -11.5 36.5t-27.5 12.5v-432q20 -4 47 -4q61 0 131 36v-17q-24 -32 -70.5 -62t-107.5 -37v-95h-30v93z M186 300q0 -93 18 -145t66 -72v420q-84 -19 -84 -203z"/>
<glyph glyph-name="sterling" unicode="£" horiz-adv-x="536" d="M27 350v30h57q-25 83 -25 126q0 93 73.5 146t199.5 53q102 0 151 -31.5t49 -82.5q0 -30 -20 -46.5t-53 -16.5q-46 0 -64 22.5t-24 82.5q-3 29 -10 37t-28 8q-75 0 -75 -127q0 -28 4 -94.5t5 -76.5h144v-30h-143v-14q0 -74 -37 -117.5t-117 -77.5v-3h303q31 0 45 14t34 65 h18l-17 -217h-485v90q57 36 81.5 65.5t24.5 79.5q0 36 -24 115h-67z"/>
<glyph glyph-name="yen" unicode="¥" horiz-adv-x="638" d="M61 315v29h160l-136 247q-28 50 -38 62t-29 19l-19 6v15h362v-15l-28 -7q-25 -7 -34.5 -16t-9.5 -26q0 -19 17 -55l100 -202h3l82 191q16 39 16 64q0 32 -42 44l-26 7v15h186v-15l-14 -5q-22 -6 -35.5 -25.5t-44.5 -87.5l-99 -216h163v-29h-168v-70h168v-30h-168v-117 q0 -46 7.5 -56.5t41.5 -19.5l33 -7v-15h-361v15l32 7q34 9 41.5 19.5t7.5 56.5v117h-168v30h168v70h-168z"/>
<glyph glyph-name="brokenbar" unicode="¦" horiz-adv-x="182" d="M75 -130v387h32v-387h-32zM75 324v410h32v-410h-32z"/>
<glyph glyph-name="section" unicode="§" horiz-adv-x="577" d="M438 60q26 -37 26 -82q0 -79 -60 -130.5t-141 -51.5q-84 0 -129.5 27t-45.5 73q0 26 16.5 41.5t47.5 15.5q36 0 53 -19.5t22 -66.5q2 -26 12 -35t36 -9q34 0 55 17t21 48q0 38 -30 66.5t-138 103.5q-94 66 -129 109.5t-35 101.5q0 103 125 163q-31 46 -31 92 q0 79 57.5 128.5t144.5 49.5q82 0 126 -27t44 -72q0 -25 -16.5 -40.5t-48.5 -15.5q-35 0 -51 19t-21 65q-4 26 -13.5 35t-33.5 9q-79 0 -79 -68q0 -38 27.5 -63.5t141.5 -102.5q102 -70 134.5 -114t32.5 -105q0 -93 -120 -162zM418 83q32 26 32 61q0 30 -29 62t-118 92 q-111 74 -143 115q-33 -29 -33 -62q0 -30 28 -58t116 -91q107 -76 147 -119z"/>
<glyph glyph-name="dieresis" unicode="¨" d="M59 652q0 36 23 57t57 21q36 0 59 -21t23 -57t-23 -57t-59 -21q-34 0 -57 21t-23 57zM259 652q0 36 23.5 57t57.5 21q35 0 58.5 -21t23.5 -57t-23.5 -57t-58.5 -21q-34 0 -57.5 21t-23.5 57z"/>
<glyph glyph-name="copyright" unicode="©" horiz-adv-x="769" d="M391 133q-95 0 -154.5 55.5t-59.5 157.5q0 109 65 164.5t160 55.5q72 0 116 -14l7 -127h-20q-32 63 -49 84q-21 31 -60 31q-49 0 -65.5 -40.5t-16.5 -140.5q0 -117 18 -158.5t66 -41.5q43 0 68 36q18 28 44 87h20l-8 -124q-56 -25 -131 -25zM28 344q0 149 103.5 253.5 t253.5 104.5q149 0 252.5 -104.5t103.5 -253.5q0 -150 -103 -254t-253 -104t-253.5 104t-103.5 254zM63 344q0 -136 92.5 -232.5t229.5 -96.5q136 0 229 96.5t93 232.5t-93 232.5t-229 96.5q-137 0 -229.5 -96.5t-92.5 -232.5z"/>
<glyph glyph-name="ordfeminine" unicode="ª" horiz-adv-x="441" d="M125 275q-51 0 -80.5 26.5t-29.5 74.5q0 49 34.5 73.5t113.5 44.5l74 18v72q0 53 -10 71t-40 18q-17 0 -22.5 -7t-6.5 -25q-5 -45 -21 -62.5t-50 -17.5q-25 0 -40 14.5t-15 36.5q0 39 44 63.5t137 24.5q81 0 123 -25t42 -84v-219q0 -41 18 -49q10 -6 37 -8v-11 q-42 -29 -102 -29q-75 0 -89 48h-3q-37 -48 -114 -48zM197 330q27 0 40 18v134l-28 -2q-56 -5 -56 -79q0 -40 11 -55.5t33 -15.5z"/>
<glyph glyph-name="guillemotleft" unicode="«" horiz-adv-x="398" d="M194 48l-175 201v7l175 201h19l-87 -203l87 -206h-19zM353 48l-175 201v7l175 201h19l-87 -203l87 -206h-19z"/>
<glyph glyph-name="registered" unicode="®" horiz-adv-x="375" d="M11 522q0 75 50.5 126.5t125.5 51.5t126 -51.5t51 -126.5t-51 -126.5t-126 -51.5t-125.5 51.5t-50.5 126.5zM35 522q0 -65 43.5 -110.5t108.5 -45.5q63 0 108 46t45 110t-45 110t-108 46q-65 0 -108.5 -45.5t-43.5 -110.5zM92 432v11l10 2q7 2 8.5 5t1.5 15v120 q0 12 -2 15.5t-8 5.5l-10 1v11h94q82 0 82 -49q0 -36 -34 -46v-1q14 -35 38 -69q8 -8 13 -9l6 -1v-11h-67q-15 22 -40 78h-16v-45q0 -12 1.5 -15t8.5 -5l10 -2v-11h-96zM168 602v-77q4 -1 13 -1q17 0 24.5 9t7.5 31q0 23 -6 31t-23 8q-15 0 -16 -1z"/>
<glyph glyph-name="macron" unicode="¯" d="M104 612v62h272v-62h-272z"/>
<glyph glyph-name="degree" unicode="°" horiz-adv-x="268" d="M19 589q0 49 32.5 82t82.5 33t82.5 -33t32.5 -82t-32.5 -82t-82.5 -33t-82.5 33t-32.5 82zM50 589q0 -39 23 -63.5t61 -24.5t61 24.5t23 63.5t-23 63t-61 24t-61 -24t-23 -63z"/>
<glyph glyph-name="twosuperior" unicode="²" horiz-adv-x="328" d="M8 309v59q72 56 106 91q66 74 66 145q0 70 -38 70q-9 0 -13.5 -3.5t-6 -9t-3.5 -19.5q-4 -36 -17 -50t-45 -14q-23 0 -35.5 13t-12.5 34q0 34 40 54.5t109 20.5q73 0 115 -29t42 -84q0 -46 -51 -89t-173 -91v-3h154q19 0 27.5 9t21.5 40h17l-8 -144h-295z"/>
<glyph glyph-name="threesuperior" unicode="³" horiz-adv-x="340" d="M142 302q-65 0 -100 20t-35 56q0 41 49 41q27 0 39.5 -14.5t15.5 -50.5q2 -17 7 -22t20 -5q50 0 50 82q0 47 -17.5 67t-55.5 20h-26v28h24q67 0 67 80q0 71 -36 71q-12 0 -16.5 -4.5t-7.5 -20.5q-6 -32 -17.5 -46t-37.5 -14q-45 0 -45 41q0 31 33.5 50t98.5 19 q69 0 111.5 -23.5t42.5 -71.5q0 -34 -27.5 -56.5t-80.5 -29.5v-3q64 -7 94 -31t30 -71q0 -49 -46 -80.5t-134 -31.5z"/>
<glyph glyph-name="acute" unicode="´" d="M132 575l-4 10l118 123q28 28 58 28q26 0 44 -20.5t18 -48.5q0 -49 -51 -59z"/>
<glyph glyph-name="paragraph" unicode="¶" horiz-adv-x="492" d="M258 -100v429q-18 -2 -36 -2q-103 0 -154.5 52t-51.5 135q0 78 50.5 128.5t142.5 50.5h276v-16l-29 -7q-29 -6 -36 -17.5t-7 -58.5v-694h-39v759h-78v-759h-38z"/>
<glyph glyph-name="periodcentered" unicode="·" horiz-adv-x="219" d="M22 336q0 38 25 62t62 24q36 0 62 -24.5t26 -61.5q0 -36 -26.5 -61.5t-61.5 -25.5q-36 0 -61.5 25t-25.5 62z"/>
<glyph glyph-name="cedilla" unicode="¸" d="M152 -201v13q84 22 84 60q0 24 -40 27l-4 4l47 97h34l-29 -42q84 -8 84 -64q0 -39 -51.5 -63.5t-124.5 -31.5z"/>
<glyph glyph-name="onesuperior" unicode="¹" horiz-adv-x="248" d="M6 309v16l18 5l15 5t7.5 6.5t5 13t0.5 23.5v208l-45 11v15q50 8 97 32t73 54l19 -5v-315q0 -28 5.5 -36t23.5 -12l18 -5v-16h-237z"/>
<glyph glyph-name="ordmasculine" unicode="º" horiz-adv-x="469" d="M234 277q-89 0 -154 54.5t-65 156.5q0 72 34 122t81.5 70.5t103.5 20.5q90 0 155.5 -54.5t65.5 -155.5q0 -107 -65.5 -160.5t-155.5 -53.5zM236 300q36 0 53 37.5t17 147.5q0 80 -8.5 123t-23 56.5t-41.5 13.5q-36 0 -52.5 -38t-16.5 -138q0 -122 15.5 -162t56.5 -40z "/>
<glyph glyph-name="guillemotright" unicode="»" horiz-adv-x="398" d="M379 249l-175 -201h-19l87 203l-87 206h19l175 -201v-7zM220 249l-175 -201h-19l87 203l-87 206h19l175 -201v-7z"/>
<glyph glyph-name="onequarter" unicode="¼" horiz-adv-x="728" d="M482 0v16l18 5q20 4 25 11.5t5 36.5v38h-156v30l199 247h93v-235h57l-4 -42h-53v-38q0 -30 4.5 -37t24.5 -11l20 -5v-16h-233zM420 149h110v138h-2l-108 -136v-2zM6 309v16l18 5l15 5t7.5 6.5t5 13t0.5 23.5v208l-45 11v15q50 8 97 32t73 54l19 -5v-315q0 -28 5.5 -36 t23.5 -12l18 -5v-16h-237zM72 -50l527 764h39l-526 -764h-40z"/>
<glyph glyph-name="onehalf" unicode="½" horiz-adv-x="744" d="M424 0v59q72 56 106 91q66 74 66 145q0 70 -38 70q-9 0 -13.5 -3.5t-6 -9t-3.5 -19.5q-4 -36 -17 -50t-45 -14q-23 0 -35.5 13t-12.5 34q0 34 40 54.5t109 20.5q73 0 115 -29t42 -84q0 -46 -51 -89t-173 -91v-3h154q19 0 27.5 9t21.5 40h17l-8 -144h-295zM6 309v16l18 5 l15 5t7.5 6.5t5 13t0.5 23.5v208l-45 11v15q50 8 97 32t73 54l19 -5v-315q0 -28 5.5 -36t23.5 -12l18 -5v-16h-237zM62 -50l527 764h39l-526 -764h-40z"/>
<glyph glyph-name="threequarters" unicode="¾" horiz-adv-x="744" d="M498 0v16l18 5q20 4 25 11.5t5 36.5v38h-156v30l199 247h93v-235h57l-4 -42h-53v-38q0 -30 4.5 -37t24.5 -11l20 -5v-16h-233zM436 149h110v138h-2l-108 -136v-2zM93 -50l527 764h39l-526 -764h-40zM142 302q-65 0 -100 20t-35 56q0 41 49 41q27 0 39.5 -14.5t15.5 -50.5 q2 -17 7 -22t20 -5q50 0 50 82q0 47 -17.5 67t-55.5 20h-26v28h24q67 0 67 80q0 71 -36 71q-12 0 -16.5 -4.5t-7.5 -20.5q-6 -32 -17.5 -46t-37.5 -14q-45 0 -45 41q0 31 33.5 50t98.5 19q69 0 111.5 -23.5t42.5 -71.5q0 -34 -27.5 -56.5t-80.5 -29.5v-3q64 -7 94 -31 t30 -71q0 -49 -46 -80.5t-134 -31.5z"/>
<glyph glyph-name="questiondown" unicode="¿" horiz-adv-x="455" d="M314 397v-190q-68 -21 -105 -57t-37 -104q0 -53 21.5 -80t59.5 -27q17 0 22.5 9t8.5 37q5 51 24.5 71t63.5 20q34 0 51 -17.5t17 -45.5q0 -48 -52.5 -75.5t-142.5 -27.5q-104 0 -162.5 48.5t-58.5 138.5q0 184 255 238v62h35zM375 535q0 -38 -25 -62t-62 -24 q-35 0 -61 24.5t-26 61.5q0 35 26.5 60.5t60.5 25.5q36 0 61.5 -25t25.5 -61z"/>
<glyph glyph-name="Agrave" unicode="À" horiz-adv-x="679" d="M-7 0v15l14 5q26 8 38 26t40 92l202 555h102l203 -557q26 -70 37.5 -90t32.5 -26l18 -5v-15h-359v15l27 7q38 9 38 44q0 36 -19 84l-25 78h-186l-25 -73q-20 -58 -20 -86q0 -19 10 -29t39 -18l25 -7v-15h-192zM252 509l-85 -249h165l-77 249h-3zM449 732l-4 -9l-182 29 q-56 8 -56 60q0 28 18 47.5t45 19.5q29 0 55 -26z"/>
<glyph glyph-name="Aacute" unicode="Á" horiz-adv-x="679" d="M-7 0v15l14 5q26 8 38 26t40 92l202 555h102l203 -557q26 -70 37.5 -90t32.5 -26l18 -5v-15h-359v15l27 7q38 9 38 44q0 36 -19 84l-25 78h-186l-25 -73q-20 -58 -20 -86q0 -19 10 -29t39 -18l25 -7v-15h-192zM252 509l-85 -249h165l-77 249h-3zM231 724l-4 10l124 120 q26 26 55 26q27 0 45 -19.5t18 -47.5q0 -51 -56 -60z"/>
<glyph glyph-name="Acircumflex" unicode="Â" horiz-adv-x="679" d="M-7 0v15l14 5q26 8 38 26t40 92l202 555h102l203 -557q26 -70 37.5 -90t32.5 -26l18 -5v-15h-359v15l27 7q38 9 38 44q0 36 -19 84l-25 78h-186l-25 -73q-20 -58 -20 -86q0 -19 10 -29t39 -18l25 -7v-15h-192zM252 509l-85 -249h165l-77 249h-3zM183 723l-5 9l131 142h56 l132 -142l-6 -9l-154 46z"/>
<glyph glyph-name="Atilde" unicode="Ã" horiz-adv-x="679" d="M-7 0v15l14 5q26 8 38 26t40 92l202 555h102l203 -557q26 -70 37.5 -90t32.5 -26l18 -5v-15h-359v15l27 7q38 9 38 44q0 36 -19 84l-25 78h-186l-25 -73q-20 -58 -20 -86q0 -19 10 -29t39 -18l25 -7v-15h-192zM252 509l-85 -249h165l-77 249h-3zM416 743q-20 0 -82.5 10 t-84.5 10q-20 0 -32 -9t-27 -33l-13 7q24 71 45.5 103t57.5 32q20 0 82 -10.5t84 -10.5q20 0 32.5 9.5t27.5 33.5l13 -7q-23 -72 -44 -103.5t-59 -31.5z"/>
<glyph glyph-name="Adieresis" unicode="Ä" horiz-adv-x="679" d="M-7 0v15l14 5q26 8 38 26t40 92l202 555h102l203 -557q26 -70 37.5 -90t32.5 -26l18 -5v-15h-359v15l27 7q38 9 38 44q0 36 -19 84l-25 78h-186l-25 -73q-20 -58 -20 -86q0 -19 10 -29t39 -18l25 -7v-15h-192zM252 509l-85 -249h165l-77 249h-3zM233 722q-34 0 -57 21 t-23 57t23 57t57 21q36 0 59 -21t23 -57t-23 -57t-59 -21zM442 722q-34 0 -57 21t-23 57t23 57t57 21q36 0 59 -21t23 -57t-23 -57t-59 -21z"/>
<glyph glyph-name="Aring" unicode="Å" horiz-adv-x="679" d="M-7 0v15l14 5q26 8 38 26t40 92l202 555h102l203 -557q26 -70 37.5 -90t32.5 -26l18 -5v-15h-359v15l27 7q38 9 38 44q0 36 -19 84l-25 78h-186l-25 -73q-20 -58 -20 -86q0 -19 10 -29t39 -18l25 -7v-15h-192zM252 509l-85 -249h165l-77 249h-3zM245 807q0 38 27 63.5 t65 25.5t65 -25.5t27 -63.5t-27 -63t-65 -25t-65 25t-27 63zM280 807q0 -27 15.5 -44t41.5 -17t41.5 17t15.5 44t-15.5 44.5t-41.5 17.5t-41.5 -17.5t-15.5 -44.5z"/>
<glyph glyph-name="AE" unicode="Æ" horiz-adv-x="910" d="M895 251l-14 -251h-559v15l29 7q22 6 28.5 10.5t10.5 18.5t4 47v127h-195l-44 -86q-29 -56 -29 -82q0 -12 10 -19t36 -16l23 -7v-15h-206v15l23 7q29 8 45 26.5t52 81.5l275 513q-10 16 -49 27l-29 8v15h555l10 -213h-17q-34 78 -63 124q-21 35 -45.5 46.5t-75.5 11.5 q-53 0 -81 -7v-281h32q52 0 67.5 6t26.5 25q18 34 31 87h16v-270h-16q-13 57 -31 91q-10 19 -26.5 25t-68.5 6h-31v-242q0 -46 14 -58.5t72 -12.5t80.5 12t47.5 51q33 54 74 157h18zM392 599l-177 -343h179v342v1h-2z"/>
<glyph glyph-name="Ccedilla" unicode="Ç" horiz-adv-x="623" d="M365 -12q-158 0 -251 90.5t-93 262.5q0 93 29.5 164.5t81 114t117 64t142.5 21.5q109 0 185 -24l15 -221h-17q-51 106 -90 159q-21 31 -43.5 44.5t-59.5 13.5q-152 0 -152 -316q0 -191 35 -268t110 -77q45 0 72 13.5t53 50.5q27 38 82 159h17l-12 -212q-99 -39 -221 -39z M219 -201v13q84 22 84 60q0 24 -40 27l-4 4l47 97h34l-29 -42q84 -8 84 -64q0 -39 -51.5 -63.5t-124.5 -31.5z"/>
<glyph glyph-name="Egrave" unicode="È" horiz-adv-x="602" d="M415 732l-4 -9l-182 29q-56 8 -56 60q0 28 18 47.5t45 19.5q29 0 55 -26zM454 492v-270h-16q-10 44 -31 91q-10 19 -26.5 25t-68.5 6h-34v-242q0 -47 14 -59t75 -12q58 0 80.5 12t46.5 51q34 53 75 157h18l-14 -251h-566v15l30 7q21 6 27.5 10.5t10.5 18.5t4 47v497 q0 46 -6.5 56.5t-35.5 19.5l-30 7v15h546l9 -213h-17q-36 83 -62 124q-21 35 -45.5 46.5t-75.5 11.5q-58 0 -84 -7v-281h35q50 0 66.5 6t27.5 25q18 34 31 87h16z"/>
<glyph glyph-name="Eacute" unicode="É" horiz-adv-x="602" d="M220 724l-4 10l124 120q26 26 55 26q27 0 45 -19.5t18 -47.5q0 -51 -56 -60zM454 492v-270h-16q-10 44 -31 91q-10 19 -26.5 25t-68.5 6h-34v-242q0 -47 14 -59t75 -12q58 0 80.5 12t46.5 51q34 53 75 157h18l-14 -251h-566v15l30 7q21 6 27.5 10.5t10.5 18.5t4 47v497 q0 46 -6.5 56.5t-35.5 19.5l-30 7v15h546l9 -213h-17q-36 83 -62 124q-21 35 -45.5 46.5t-75.5 11.5q-58 0 -84 -7v-281h35q50 0 66.5 6t27.5 25q18 34 31 87h16z"/>
<glyph glyph-name="Ecircumflex" unicode="Ê" horiz-adv-x="602" d="M164 723l-5 9l131 142h56l132 -142l-6 -9l-154 46zM454 492v-270h-16q-10 44 -31 91q-10 19 -26.5 25t-68.5 6h-34v-242q0 -47 14 -59t75 -12q58 0 80.5 12t46.5 51q34 53 75 157h18l-14 -251h-566v15l30 7q21 6 27.5 10.5t10.5 18.5t4 47v497q0 46 -6.5 56.5t-35.5 19.5 l-30 7v15h546l9 -213h-17q-36 83 -62 124q-21 35 -45.5 46.5t-75.5 11.5q-58 0 -84 -7v-281h35q50 0 66.5 6t27.5 25q18 34 31 87h16z"/>
<glyph glyph-name="Edieresis" unicode="Ë" horiz-adv-x="602" d="M454 492v-270h-16q-10 44 -31 91q-10 19 -26.5 25t-68.5 6h-34v-242q0 -47 14 -59t75 -12q58 0 80.5 12t46.5 51q34 53 75 157h18l-14 -251h-566v15l30 7q21 6 27.5 10.5t10.5 18.5t4 47v497q0 46 -6.5 56.5t-35.5 19.5l-30 7v15h546l9 -213h-17q-36 83 -62 124 q-21 35 -45.5 46.5t-75.5 11.5q-58 0 -84 -7v-281h35q50 0 66.5 6t27.5 25q18 34 31 87h16zM209 722q-34 0 -57 21t-23 57t23 57t57 21q36 0 59 -21t23 -57t-23 -57t-59 -21zM418 722q-34 0 -57 21t-23 57t23 57t57 21q36 0 59 -21t23 -57t-23 -57t-59 -21z"/>
<glyph glyph-name="Igrave" unicode="Ì" horiz-adv-x="362" d="M7 0v15l32 7q29 6 36 18t7 58v497q0 46 -7 58t-36 18l-32 7v15h348v-15l-32 -7q-29 -6 -36 -18t-7 -58v-497q0 -46 7 -58t36 -18l32 -7v-15h-348zM292 732l-4 -9l-182 29q-56 8 -56 60q0 28 18 47.5t45 19.5q29 0 55 -26z"/>
<glyph glyph-name="Iacute" unicode="Í" horiz-adv-x="362" d="M7 0v15l32 7q29 6 36 18t7 58v497q0 46 -7 58t-36 18l-32 7v15h348v-15l-32 -7q-29 -6 -36 -18t-7 -58v-497q0 -46 7 -58t36 -18l32 -7v-15h-348zM80 724l-4 10l124 120q26 26 55 26q27 0 45 -19.5t18 -47.5q0 -51 -56 -60z"/>
<glyph glyph-name="Icircumflex" unicode="Î" horiz-adv-x="362" d="M7 0v15l32 7q29 6 36 18t7 58v497q0 46 -7 58t-36 18l-32 7v15h348v-15l-32 -7q-29 -6 -36 -18t-7 -58v-497q0 -46 7 -58t36 -18l32 -7v-15h-348zM29 723l-5 9l131 142h56l132 -142l-6 -9l-154 46z"/>
<glyph glyph-name="Idieresis" unicode="Ï" horiz-adv-x="362" d="M7 0v15l32 7q29 6 36 18t7 58v497q0 46 -7 58t-36 18l-32 7v15h348v-15l-32 -7q-29 -6 -36 -18t-7 -58v-497q0 -46 7 -58t36 -18l32 -7v-15h-348zM76 722q-34 0 -57 21t-23 57t23 57t57 21q36 0 59 -21t23 -57t-23 -57t-59 -21zM285 722q-34 0 -57 21t-23 57t23 57t57 21 q36 0 59 -21t23 -57t-23 -57t-59 -21z"/>
<glyph glyph-name="Eth" unicode="Ð" horiz-adv-x="728" d="M19 333v29h60v233q0 46 -6.5 56.5t-35.5 19.5l-30 7v15h351q165 0 257 -82.5t92 -250.5q0 -169 -94.5 -264.5t-258.5 -95.5h-347v15l30 7q21 6 27.5 10.5t10.5 18.5t4 47v235h-60zM342 33q81 0 119.5 74.5t38.5 228.5q0 183 -38 253.5t-122 70.5q-34 0 -62 -7v-291h128 v-29h-128v-235q0 -40 13 -52.5t51 -12.5z"/>
<glyph glyph-name="Ntilde" unicode="Ñ" horiz-adv-x="670" d="M435 743q-20 0 -82.5 10t-84.5 10q-20 0 -32 -9t-27 -33l-13 7q24 71 45.5 103t57.5 32q20 0 82 -10.5t84 -10.5q20 0 32.5 9.5t27.5 33.5l13 -7q-23 -72 -44 -103.5t-59 -31.5zM534 -1l-415 585h-3v-461q0 -58 8 -75.5t41 -24.5l33 -8v-15h-191v15l30 8q28 8 35 24t7 71 v477q0 39 -8.5 54t-34.5 22l-29 7v15h268l276 -384h3v261q0 59 -7.5 75t-40.5 24l-36 9v15h193v-15l-30 -8q-27 -6 -34.5 -23.5t-7.5 -71.5v-576h-57z"/>
<glyph glyph-name="Ograve" unicode="Ò" horiz-adv-x="727" d="M482 732l-4 -9l-182 29q-56 8 -56 60q0 28 18 47.5t45 19.5q29 0 55 -26zM361 -12q-67 0 -127 21t-108 62.5t-76.5 110t-28.5 156.5q0 95 31 168.5t82.5 115t110.5 62.5t122 21q54 0 102.5 -12t92.5 -38.5t75.5 -66.5t50.5 -100t19 -134q0 -96 -31 -169.5t-82.5 -115 t-110.5 -61.5t-122 -20zM364 16q72 0 104 69.5t32 246.5q0 192 -32 268.5t-105 76.5q-70 0 -103 -71t-33 -246q0 -193 32 -268.5t105 -75.5z"/>
<glyph glyph-name="Oacute" unicode="Ó" horiz-adv-x="727" d="M257 724l-4 10l124 120q26 26 55 26q27 0 45 -19.5t18 -47.5q0 -51 -56 -60zM361 -12q-67 0 -127 21t-108 62.5t-76.5 110t-28.5 156.5q0 95 31 168.5t82.5 115t110.5 62.5t122 21q54 0 102.5 -12t92.5 -38.5t75.5 -66.5t50.5 -100t19 -134q0 -96 -31 -169.5t-82.5 -115 t-110.5 -61.5t-122 -20zM364 16q72 0 104 69.5t32 246.5q0 192 -32 268.5t-105 76.5q-70 0 -103 -71t-33 -246q0 -193 32 -268.5t105 -75.5z"/>
<glyph glyph-name="Ocircumflex" unicode="Ô" horiz-adv-x="727" d="M209 723l-5 9l131 142h56l132 -142l-6 -9l-154 46zM361 -12q-67 0 -127 21t-108 62.5t-76.5 110t-28.5 156.5q0 95 31 168.5t82.5 115t110.5 62.5t122 21q54 0 102.5 -12t92.5 -38.5t75.5 -66.5t50.5 -100t19 -134q0 -96 -31 -169.5t-82.5 -115t-110.5 -61.5t-122 -20z M364 16q72 0 104 69.5t32 246.5q0 192 -32 268.5t-105 76.5q-70 0 -103 -71t-33 -246q0 -193 32 -268.5t105 -75.5z"/>
<glyph glyph-name="Otilde" unicode="Õ" horiz-adv-x="727" d="M436 743q-20 0 -82.5 10t-84.5 10q-20 0 -32 -9t-27 -33l-13 7q24 71 45.5 103t57.5 32q20 0 82 -10.5t84 -10.5q20 0 32.5 9.5t27.5 33.5l13 -7q-23 -72 -44 -103.5t-59 -31.5zM361 -12q-67 0 -127 21t-108 62.5t-76.5 110t-28.5 156.5q0 95 31 168.5t82.5 115 t110.5 62.5t122 21q54 0 102.5 -12t92.5 -38.5t75.5 -66.5t50.5 -100t19 -134q0 -96 -31 -169.5t-82.5 -115t-110.5 -61.5t-122 -20zM364 16q72 0 104 69.5t32 246.5q0 192 -32 268.5t-105 76.5q-70 0 -103 -71t-33 -246q0 -193 32 -268.5t105 -75.5z"/>
<glyph glyph-name="Odieresis" unicode="Ö" horiz-adv-x="727" d="M258 722q-34 0 -57 21t-23 57t23 57t57 21q36 0 59 -21t23 -57t-23 -57t-59 -21zM467 722q-34 0 -57 21t-23 57t23 57t57 21q36 0 59 -21t23 -57t-23 -57t-59 -21zM361 -12q-67 0 -127 21t-108 62.5t-76.5 110t-28.5 156.5q0 95 31 168.5t82.5 115t110.5 62.5t122 21 q54 0 102.5 -12t92.5 -38.5t75.5 -66.5t50.5 -100t19 -134q0 -96 -31 -169.5t-82.5 -115t-110.5 -61.5t-122 -20zM364 16q72 0 104 69.5t32 246.5q0 192 -32 268.5t-105 76.5q-70 0 -103 -71t-33 -246q0 -193 32 -268.5t105 -75.5z"/>
<glyph glyph-name="multiply" unicode="×" horiz-adv-x="447" d="M372 522l23 -23l-149 -157l149 -156l-22 -23l-149 156l-149 -156l-23 23l149 156l-148 157l22 23l148 -157z"/>
<glyph glyph-name="Oslash" unicode="Ø" horiz-adv-x="727" d="M361 -12q-111 0 -195 53l-67 -94h-36l79 111q-121 96 -121 280q0 95 31 168.5t82.5 115t110.5 62.5t122 21q112 0 197 -52l54 77h37l-67 -94q119 -93 119 -282q0 -96 -31 -169.5t-82.5 -115t-110.5 -61.5t-122 -20zM223 360q0 -107 10 -174l254 358q-17 72 -47 102.5 t-77 30.5q-70 0 -105 -71.5t-35 -245.5zM364 16q72 0 106 70.5t34 245.5q0 104 -10 171l-254 -357q17 -70 47 -100t77 -30z"/>
<glyph glyph-name="Ugrave" unicode="Ù" horiz-adv-x="688" d="M514 732l-4 -9l-182 29q-56 8 -56 60q0 28 18 47.5t45 19.5q29 0 55 -26zM371 -12q-144 0 -219 53t-75 179v375q0 33 -4 47t-11 18.5t-29 10.5l-29 7v15h344v-15l-30 -7q-18 -5 -23.5 -7.5t-12 -10.5t-7.5 -20.5t-1 -37.5v-392q0 -82 37.5 -120.5t118.5 -38.5 q77 0 111 43t34 126v357q0 58 -8 74.5t-41 24.5l-36 9v15h194v-15l-31 -8q-25 -6 -33 -24t-8 -71v-370q0 -98 -59 -157.5t-182 -59.5z"/>
<glyph glyph-name="Uacute" unicode="Ú" horiz-adv-x="688" d="M305 724l-4 10l124 120q26 26 55 26q27 0 45 -19.5t18 -47.5q0 -51 -56 -60zM371 -12q-144 0 -219 53t-75 179v375q0 33 -4 47t-11 18.5t-29 10.5l-29 7v15h344v-15l-30 -7q-18 -5 -23.5 -7.5t-12 -10.5t-7.5 -20.5t-1 -37.5v-392q0 -82 37.5 -120.5t118.5 -38.5 q77 0 111 43t34 126v357q0 58 -8 74.5t-41 24.5l-36 9v15h194v-15l-31 -8q-25 -6 -33 -24t-8 -71v-370q0 -98 -59 -157.5t-182 -59.5z"/>
<glyph glyph-name="Ucircumflex" unicode="Û" horiz-adv-x="688" d="M243 723l-5 9l131 142h56l132 -142l-6 -9l-154 46zM371 -12q-144 0 -219 53t-75 179v375q0 33 -4 47t-11 18.5t-29 10.5l-29 7v15h344v-15l-30 -7q-18 -5 -23.5 -7.5t-12 -10.5t-7.5 -20.5t-1 -37.5v-392q0 -82 37.5 -120.5t118.5 -38.5q77 0 111 43t34 126v357 q0 58 -8 74.5t-41 24.5l-36 9v15h194v-15l-31 -8q-25 -6 -33 -24t-8 -71v-370q0 -98 -59 -157.5t-182 -59.5z"/>
<glyph glyph-name="Udieresis" unicode="Ü" horiz-adv-x="688" d="M371 -12q-144 0 -219 53t-75 179v375q0 33 -4 47t-11 18.5t-29 10.5l-29 7v15h344v-15l-30 -7q-18 -5 -23.5 -7.5t-12 -10.5t-7.5 -20.5t-1 -37.5v-392q0 -82 37.5 -120.5t118.5 -38.5q77 0 111 43t34 126v357q0 58 -8 74.5t-41 24.5l-36 9v15h194v-15l-31 -8 q-25 -6 -33 -24t-8 -71v-370q0 -98 -59 -157.5t-182 -59.5zM279 722q-34 0 -57 21t-23 57t23 57t57 21q36 0 59 -21t23 -57t-23 -57t-59 -21zM488 722q-34 0 -57 21t-23 57t23 57t57 21q36 0 59 -21t23 -57t-23 -57t-59 -21z"/>
<glyph glyph-name="Yacute" unicode="Ý" horiz-adv-x="637" d="M154 0v15l32 7q34 9 41.5 19.5t7.5 56.5v198l-165 295q-36 62 -46 71q-7 6 -20 10l-18 6v15h366v-15l-32 -7q-44 -11 -44 -42q0 -24 17 -55l120 -231h3l97 220q17 37 17 64q0 32 -42 44l-27 7v15h186v-15l-19 -7q-19 -6 -31.5 -23.5t-36.5 -70.5l-127 -276v-203 q0 -46 7.5 -56.5t41.5 -19.5l33 -7v-15h-361zM282 724l-4 10l124 120q26 26 55 26q27 0 45 -19.5t18 -47.5q0 -51 -56 -60z"/>
<glyph glyph-name="Thorn" unicode="Þ" horiz-adv-x="643" d="M7 693h346v-15l-31 -7q-31 -6 -37.5 -17.5t-6.5 -58.5v-39h68q145 0 216 -46t71 -147q0 -88 -64 -147.5t-190 -59.5q-52 0 -78 8v20q78 2 104 37.5t26 132.5q0 102 -20.5 136t-76.5 34q-30 0 -56 -6v-420q0 -45 7.5 -56t38.5 -17l51 -10v-15h-368v15l30 7q21 6 27.5 10.5 t10.5 18.5t4 47v497q0 46 -6.5 56.5t-35.5 19.5l-30 7v15z"/>
<glyph glyph-name="germandbls" unicode="ß" horiz-adv-x="653" d="M441 -10q-76 0 -115.5 23.5t-39.5 63.5q0 57 65 57q32 0 45 -16t20 -61q4 -24 9.5 -32t24.5 -8q30 0 48 16.5t18 43.5q0 34 -22.5 59t-80.5 65q-61 40 -82 70t-21 69q0 40 27 88l54 98t27 96q0 57 -16 84t-63 27q-51 0 -77 -32.5t-26 -109.5v-520q0 -31 4.5 -39t24.5 -12 l18 -5v-15h-281v15l21 6q28 8 34 16t6 41v395h-65v11l65 38v7q0 112 81 172t209 60q96 0 152 -36.5t56 -94.5q0 -36 -28 -70t-61 -55t-61 -42t-28 -33q0 -15 19 -29t91 -53q76 -43 112.5 -83.5t36.5 -96.5q0 -76 -55 -127t-146 -51z"/>
<glyph glyph-name="agrave" unicode="à" horiz-adv-x="528" d="M157 -12q-67 0 -106 33t-39 91q0 34 12.5 59t38 41t49.5 25t61 18l118 32v99q0 69 -11.5 95.5t-48.5 26.5q-24 0 -33.5 -8t-11.5 -34q-4 -57 -21 -77.5t-58 -20.5q-73 0 -73 60q0 52 58.5 80t170.5 28q201 0 201 -140v-284q0 -30 4 -43t17 -21q21 -10 47 -10v-13 q-47 -37 -122 -37q-89 0 -109 65h-4q-53 -65 -140 -65zM240 55q38 0 51 24v170l-32 -4q-42 -4 -60 -25.5t-18 -73.5q0 -91 59 -91zM360 585l-4 -10l-183 33q-51 10 -51 59q0 28 18 48.5t44 20.5q30 0 58 -28z"/>
<glyph glyph-name="aacute" unicode="á" horiz-adv-x="528" d="M157 -12q-67 0 -106 33t-39 91q0 34 12.5 59t38 41t49.5 25t61 18l118 32v99q0 69 -11.5 95.5t-48.5 26.5q-24 0 -33.5 -8t-11.5 -34q-4 -57 -21 -77.5t-58 -20.5q-73 0 -73 60q0 52 58.5 80t170.5 28q201 0 201 -140v-284q0 -30 4 -43t17 -21q21 -10 47 -10v-13 q-47 -37 -122 -37q-89 0 -109 65h-4q-53 -65 -140 -65zM240 55q38 0 51 24v170l-32 -4q-42 -4 -60 -25.5t-18 -73.5q0 -91 59 -91zM153 575l-4 10l118 123q28 28 58 28q26 0 44 -20.5t18 -48.5q0 -49 -51 -59z"/>
<glyph glyph-name="acircumflex" unicode="â" horiz-adv-x="528" d="M157 -12q-67 0 -106 33t-39 91q0 34 12.5 59t38 41t49.5 25t61 18l118 32v99q0 69 -11.5 95.5t-48.5 26.5q-24 0 -33.5 -8t-11.5 -34q-4 -57 -21 -77.5t-58 -20.5q-73 0 -73 60q0 52 58.5 80t170.5 28q201 0 201 -140v-284q0 -30 4 -43t17 -21q21 -10 47 -10v-13 q-47 -37 -122 -37q-89 0 -109 65h-4q-53 -65 -140 -65zM240 55q38 0 51 24v170l-32 -4q-42 -4 -60 -25.5t-18 -73.5q0 -91 59 -91zM226 734h52l119 -154l-5 -8l-140 57l-139 -57l-5 8z"/>
<glyph glyph-name="atilde" unicode="ã" horiz-adv-x="528" d="M157 -12q-67 0 -106 33t-39 91q0 34 12.5 59t38 41t49.5 25t61 18l118 32v99q0 69 -11.5 95.5t-48.5 26.5q-24 0 -33.5 -8t-11.5 -34q-4 -57 -21 -77.5t-58 -20.5q-73 0 -73 60q0 52 58.5 80t170.5 28q201 0 201 -140v-284q0 -30 4 -43t17 -21q21 -10 47 -10v-13 q-47 -37 -122 -37q-89 0 -109 65h-4q-53 -65 -140 -65zM240 55q38 0 51 24v170l-32 -4q-42 -4 -60 -25.5t-18 -73.5q0 -91 59 -91zM119 571l-12 7q22 70 44.5 102.5t56.5 32.5q20 0 72.5 -9.5t73.5 -9.5q20 0 32 9.5t27 33.5l13 -7q-23 -72 -44 -103.5t-58 -31.5 q-20 0 -72.5 9t-73.5 9q-20 0 -32 -9t-27 -33z"/>
<glyph glyph-name="adieresis" unicode="ä" horiz-adv-x="528" d="M157 -12q-67 0 -106 33t-39 91q0 34 12.5 59t38 41t49.5 25t61 18l118 32v99q0 69 -11.5 95.5t-48.5 26.5q-24 0 -33.5 -8t-11.5 -34q-4 -57 -21 -77.5t-58 -20.5q-73 0 -73 60q0 52 58.5 80t170.5 28q201 0 201 -140v-284q0 -30 4 -43t17 -21q21 -10 47 -10v-13 q-47 -37 -122 -37q-89 0 -109 65h-4q-53 -65 -140 -65zM240 55q38 0 51 24v170l-32 -4q-42 -4 -60 -25.5t-18 -73.5q0 -91 59 -91zM70 652q0 36 23 57t57 21q36 0 59 -21t23 -57t-23 -57t-59 -21q-34 0 -57 21t-23 57zM270 652q0 36 23.5 57t57.5 21q35 0 58.5 -21t23.5 -57 t-23.5 -57t-58.5 -21q-34 0 -57.5 21t-23.5 57z"/>
<glyph glyph-name="aring" unicode="å" horiz-adv-x="528" d="M157 -12q-67 0 -106 33t-39 91q0 34 12.5 59t38 41t49.5 25t61 18l118 32v99q0 69 -11.5 95.5t-48.5 26.5q-24 0 -33.5 -8t-11.5 -34q-4 -57 -21 -77.5t-58 -20.5q-73 0 -73 60q0 52 58.5 80t170.5 28q201 0 201 -140v-284q0 -30 4 -43t17 -21q21 -10 47 -10v-13 q-47 -37 -122 -37q-89 0 -109 65h-4q-53 -65 -140 -65zM240 55q38 0 51 24v170l-32 -4q-42 -4 -60 -25.5t-18 -73.5q0 -91 59 -91zM158 655q0 38 27 63t65 25t65 -25t27 -63t-27 -63t-65 -25t-65 25t-27 63zM193 655q0 -27 15.5 -44.5t41.5 -17.5t41.5 17.5t15.5 44.5 t-15.5 44.5t-41.5 17.5t-41.5 -17.5t-15.5 -44.5z"/>
<glyph glyph-name="ae" unicode="æ" horiz-adv-x="800" d="M343 75h-1q-36 -45 -79.5 -66t-105.5 -21q-67 0 -106 33.5t-39 93.5q0 65 42.5 96.5t118.5 50.5l118 31v93q0 69 -11.5 95.5t-48.5 26.5q-24 0 -33.5 -8t-11.5 -34q-4 -57 -21 -77.5t-58 -20.5q-73 0 -73 60q0 51 56 79.5t157 28.5q113 0 154 -63q65 63 154 63 q226 0 233 -245h-326q2 -124 42 -171t125 -47q75 0 140 35v-17q-32 -42 -87.5 -72.5t-129.5 -30.5q-142 0 -209 87zM547 510q-40 0 -61.5 -43.5t-23.5 -151.5l156 10q0 106 -15 145.5t-56 39.5zM247 55q47 0 83 39q-37 60 -39 161l-28 -3q-45 -5 -63.5 -27.5t-18.5 -75.5 q0 -94 66 -94z"/>
<glyph glyph-name="ccedilla" unicode="ç" horiz-adv-x="494" d="M269 -12q-120 0 -187 70.5t-67 192.5q0 73 27 129.5t72 89.5t96.5 49.5t106.5 16.5q80 0 123.5 -26.5t43.5 -77.5q0 -69 -75 -69q-43 0 -59.5 20.5t-20.5 75.5q-4 31 -9.5 39.5t-27.5 8.5q-102 0 -102 -207q0 -118 34 -173t124 -55q67 0 130 34v-17q-22 -35 -79.5 -68 t-129.5 -33zM127 -201v13q84 22 84 60q0 24 -40 27l-4 4l47 97h34l-29 -42q84 -8 84 -64q0 -39 -51.5 -63.5t-124.5 -31.5z"/>
<glyph glyph-name="egrave" unicode="è" horiz-adv-x="528" d="M280 -12q-133 0 -199 68t-66 199q0 88 40 153.5t99.5 96.5t127.5 31q226 0 233 -242h-329q0 -126 42 -173.5t129 -47.5q74 0 139 35v-17q-31 -41 -87.5 -72t-128.5 -31zM275 510q-41 0 -64 -43t-25 -149l160 10q0 104 -15.5 143t-55.5 39zM386 585l-4 -10l-183 33 q-51 10 -51 59q0 28 18 48.5t44 20.5q30 0 58 -28z"/>
<glyph glyph-name="eacute" unicode="é" horiz-adv-x="528" d="M174 575l-4 10l118 123q28 28 58 28q26 0 44 -20.5t18 -48.5q0 -49 -51 -59zM280 -12q-133 0 -199 68t-66 199q0 88 40 153.5t99.5 96.5t127.5 31q226 0 233 -242h-329q0 -126 42 -173.5t129 -47.5q74 0 139 35v-17q-31 -41 -87.5 -72t-128.5 -31zM275 510q-41 0 -64 -43 t-25 -149l160 10q0 104 -15.5 143t-55.5 39z"/>
<glyph glyph-name="ecircumflex" unicode="ê" horiz-adv-x="528" d="M245 734h52l119 -154l-5 -8l-140 57l-139 -57l-5 8zM280 -12q-133 0 -199 68t-66 199q0 88 40 153.5t99.5 96.5t127.5 31q226 0 233 -242h-329q0 -126 42 -173.5t129 -47.5q74 0 139 35v-17q-31 -41 -87.5 -72t-128.5 -31zM275 510q-41 0 -64 -43t-25 -149l160 10 q0 104 -15.5 143t-55.5 39z"/>
<glyph glyph-name="edieresis" unicode="ë" horiz-adv-x="528" d="M96 652q0 36 23 57t57 21q36 0 59 -21t23 -57t-23 -57t-59 -21q-34 0 -57 21t-23 57zM296 652q0 36 23.5 57t57.5 21q35 0 58.5 -21t23.5 -57t-23.5 -57t-58.5 -21q-34 0 -57.5 21t-23.5 57zM280 -12q-133 0 -199 68t-66 199q0 88 40 153.5t99.5 96.5t127.5 31 q226 0 233 -242h-329q0 -126 42 -173.5t129 -47.5q74 0 139 35v-17q-31 -41 -87.5 -72t-128.5 -31zM275 510q-41 0 -64 -43t-25 -149l160 10q0 104 -15.5 143t-55.5 39z"/>
<glyph glyph-name="igrave" unicode="ì" horiz-adv-x="299" d="M2 0v15l21 6q28 8 34 16t6 41v336q0 32 -5 41.5t-30 25.5l-31 20v9l236 25l7 -5q-4 -55 -4 -125v-327q0 -34 6 -41t35 -16l20 -6v-15h-295zM255 585l-4 -10l-183 33q-51 10 -51 59q0 28 18 48.5t44 20.5q30 0 58 -28z"/>
<glyph glyph-name="iacute" unicode="í" horiz-adv-x="299" d="M39 575l-4 10l118 123q28 28 58 28q26 0 44 -20.5t18 -48.5q0 -49 -51 -59zM2 0v15l21 6q28 8 34 16t6 41v336q0 32 -5 41.5t-30 25.5l-31 20v9l236 25l7 -5q-4 -55 -4 -125v-327q0 -34 6 -41t35 -16l20 -6v-15h-295z"/>
<glyph glyph-name="icircumflex" unicode="î" horiz-adv-x="299" d="M118 734h52l119 -154l-5 -8l-140 57l-139 -57l-5 8zM2 0v15l21 6q28 8 34 16t6 41v336q0 32 -5 41.5t-30 25.5l-31 20v9l236 25l7 -5q-4 -55 -4 -125v-327q0 -34 6 -41t35 -16l20 -6v-15h-295z"/>
<glyph glyph-name="idieresis" unicode="ï" horiz-adv-x="299" d="M-36 652q0 36 23 57t57 21q36 0 59 -21t23 -57t-23 -57t-59 -21q-34 0 -57 21t-23 57zM164 652q0 36 23.5 57t57.5 21q35 0 58.5 -21t23.5 -57t-23.5 -57t-58.5 -21q-34 0 -57.5 21t-23.5 57zM2 0v15l21 6q28 8 34 16t6 41v336q0 32 -5 41.5t-30 25.5l-31 20v9l236 25 l7 -5q-4 -55 -4 -125v-327q0 -34 6 -41t35 -16l20 -6v-15h-295z"/>
<glyph glyph-name="eth" unicode="ð" horiz-adv-x="583" d="M139 589l-12 24l118 56q-52 46 -124 81l6 16q107 -30 181 -68l114 54l13 -24l-98 -46q230 -134 230 -379q0 -87 -23.5 -151t-64 -98.5t-87.5 -50t-101 -15.5q-118 0 -197 70t-79 204q0 70 25 124.5t65.5 86t86 47.5t91.5 16q43 0 69 -18q-25 71 -85 131zM292 15 q34 0 53 16.5t30.5 69.5t11.5 152q0 102 -12 160t-32 77t-52 19q-52 0 -73.5 -52.5t-21.5 -189.5q0 -104 12 -161t31 -74t53 -17z"/>
<glyph glyph-name="ntilde" unicode="ñ" horiz-adv-x="620" d="M2 0v15l21 6q28 8 34 16t6 41v335q0 31 -5 41t-28 26l-31 21v9l226 25l8 -5l-1 -72h3q106 78 192 78q62 0 96 -34t34 -100v-324q0 -34 6 -41t35 -16l21 -6v-15h-290v15l19 5q26 6 31 14.5t5 43.5v291q0 43 -15 59.5t-49 16.5q-50 0 -84 -12v-355q0 -35 5.5 -43.5 t30.5 -14.5l19 -5v-15h-289zM177 571l-12 7q22 70 44.5 102.5t56.5 32.5q20 0 72.5 -9.5t73.5 -9.5q20 0 32 9.5t27 33.5l13 -7q-23 -72 -44 -103.5t-58 -31.5q-20 0 -72.5 9t-73.5 9q-20 0 -32 -9t-27 -33z"/>
<glyph glyph-name="ograve" unicode="ò" horiz-adv-x="583" d="M291 -12q-117 0 -196.5 70.5t-79.5 201.5q0 93 41.5 157.5t102 91.5t132.5 27q117 0 196.5 -70t79.5 -202q0 -71 -23 -125.5t-62.5 -86.5t-88 -48t-102.5 -16zM294 15q34 0 53 17t30 70.5t11 152.5q0 104 -13 161.5t-32.5 75t-53.5 17.5q-48 0 -71 -49.5t-23 -186.5 q0 -107 11 -164t31 -75.5t57 -18.5zM399 585l-4 -10l-183 33q-51 10 -51 59q0 28 18 48.5t44 20.5q30 0 58 -28z"/>
<glyph glyph-name="oacute" unicode="ó" horiz-adv-x="583" d="M183 575l-4 10l118 123q28 28 58 28q26 0 44 -20.5t18 -48.5q0 -49 -51 -59zM291 -12q-117 0 -196.5 70.5t-79.5 201.5q0 93 41.5 157.5t102 91.5t132.5 27q117 0 196.5 -70t79.5 -202q0 -71 -23 -125.5t-62.5 -86.5t-88 -48t-102.5 -16zM294 15q34 0 53 17t30 70.5 t11 152.5q0 104 -13 161.5t-32.5 75t-53.5 17.5q-48 0 -71 -49.5t-23 -186.5q0 -107 11 -164t31 -75.5t57 -18.5z"/>
<glyph glyph-name="ocircumflex" unicode="ô" horiz-adv-x="583" d="M266 734h52l119 -154l-5 -8l-140 57l-139 -57l-5 8zM291 -12q-117 0 -196.5 70.5t-79.5 201.5q0 93 41.5 157.5t102 91.5t132.5 27q117 0 196.5 -70t79.5 -202q0 -71 -23 -125.5t-62.5 -86.5t-88 -48t-102.5 -16zM294 15q34 0 53 17t30 70.5t11 152.5q0 104 -13 161.5 t-32.5 75t-53.5 17.5q-48 0 -71 -49.5t-23 -186.5q0 -107 11 -164t31 -75.5t57 -18.5z"/>
<glyph glyph-name="otilde" unicode="õ" horiz-adv-x="583" d="M291 -12q-117 0 -196.5 70.5t-79.5 201.5q0 93 41.5 157.5t102 91.5t132.5 27q117 0 196.5 -70t79.5 -202q0 -71 -23 -125.5t-62.5 -86.5t-88 -48t-102.5 -16zM294 15q34 0 53 17t30 70.5t11 152.5q0 104 -13 161.5t-32.5 75t-53.5 17.5q-48 0 -71 -49.5t-23 -186.5 q0 -107 11 -164t31 -75.5t57 -18.5zM148 571l-12 7q22 70 44.5 102.5t56.5 32.5q20 0 72.5 -9.5t73.5 -9.5q20 0 32 9.5t27 33.5l13 -7q-23 -72 -44 -103.5t-58 -31.5q-20 0 -72.5 9t-73.5 9q-20 0 -32 -9t-27 -33z"/>
<glyph glyph-name="odieresis" unicode="ö" horiz-adv-x="583" d="M111 652q0 36 23 57t57 21q36 0 59 -21t23 -57t-23 -57t-59 -21q-34 0 -57 21t-23 57zM311 652q0 36 23.5 57t57.5 21q35 0 58.5 -21t23.5 -57t-23.5 -57t-58.5 -21q-34 0 -57.5 21t-23.5 57zM291 -12q-117 0 -196.5 70.5t-79.5 201.5q0 93 41.5 157.5t102 91.5t132.5 27 q117 0 196.5 -70t79.5 -202q0 -71 -23 -125.5t-62.5 -86.5t-88 -48t-102.5 -16zM294 15q34 0 53 17t30 70.5t11 152.5q0 104 -13 161.5t-32.5 75t-53.5 17.5q-48 0 -71 -49.5t-23 -186.5q0 -107 11 -164t31 -75.5t57 -18.5z"/>
<glyph glyph-name="divide" unicode="÷" horiz-adv-x="473" d="M42 329v31h389v-31h-389zM236 122q-29 0 -49.5 21t-20.5 49q0 30 20.5 50t49.5 20q28 0 48.5 -20t20.5 -50q0 -28 -20.5 -49t-48.5 -21zM236 427q-29 0 -49.5 21t-20.5 48q0 30 20 50t50 20q28 0 48.5 -20t20.5 -50q0 -27 -20.5 -48t-48.5 -21z"/>
<glyph glyph-name="oslash" unicode="ø" horiz-adv-x="583" d="M291 -12q-91 0 -153 38l-49 -70h-35l60 86q-99 74 -99 218q0 93 41.5 157.5t102 91.5t132.5 27q79 0 142 -33l44 63h35l-54 -78q109 -72 109 -224q0 -71 -23 -125.5t-62.5 -86.5t-88 -48t-102.5 -16zM294 15q34 0 54 17t32 71t12 152q0 82 -7 128l-185 -267 q9 -58 32 -79.5t62 -21.5zM190 273q0 -72 4 -115l184 265q-12 49 -33.5 67.5t-55.5 18.5q-32 0 -52 -18t-33.5 -71.5t-13.5 -146.5z"/>
<glyph glyph-name="ugrave" unicode="ù" horiz-adv-x="618" d="M383 91v320q0 33 -5 43t-28 26l-31 21v9l229 25l7 -5v-420q0 -38 6 -49.5t30 -19.5l25 -9v-12l-223 -32l-7 6v71h-3q-102 -77 -192 -77q-60 0 -94.5 34.5t-34.5 99.5v290q0 32 -5 42t-28 26l-30 21v9l228 25l8 -5v-369q0 -82 64 -82q34 0 84 12zM413 585l-4 -10l-183 33 q-51 10 -51 59q0 28 18 48.5t44 20.5q30 0 58 -28z"/>
<glyph glyph-name="uacute" unicode="ú" horiz-adv-x="618" d="M208 575l-4 10l118 123q28 28 58 28q26 0 44 -20.5t18 -48.5q0 -49 -51 -59zM383 91v320q0 33 -5 43t-28 26l-31 21v9l229 25l7 -5v-420q0 -38 6 -49.5t30 -19.5l25 -9v-12l-223 -32l-7 6v71h-3q-102 -77 -192 -77q-60 0 -94.5 34.5t-34.5 99.5v290q0 32 -5 42t-28 26 l-30 21v9l228 25l8 -5v-369q0 -82 64 -82q34 0 84 12z"/>
<glyph glyph-name="ucircumflex" unicode="û" horiz-adv-x="618" d="M280 734h52l119 -154l-5 -8l-140 57l-139 -57l-5 8zM383 91v320q0 33 -5 43t-28 26l-31 21v9l229 25l7 -5v-420q0 -38 6 -49.5t30 -19.5l25 -9v-12l-223 -32l-7 6v71h-3q-102 -77 -192 -77q-60 0 -94.5 34.5t-34.5 99.5v290q0 32 -5 42t-28 26l-30 21v9l228 25l8 -5v-369 q0 -82 64 -82q34 0 84 12z"/>
<glyph glyph-name="udieresis" unicode="ü" horiz-adv-x="618" d="M119 652q0 36 23 57t57 21q36 0 59 -21t23 -57t-23 -57t-59 -21q-34 0 -57 21t-23 57zM319 652q0 36 23.5 57t57.5 21q35 0 58.5 -21t23.5 -57t-23.5 -57t-58.5 -21q-34 0 -57.5 21t-23.5 57zM383 91v320q0 33 -5 43t-28 26l-31 21v9l229 25l7 -5v-420q0 -38 6 -49.5 t30 -19.5l25 -9v-12l-223 -32l-7 6v71h-3q-102 -77 -192 -77q-60 0 -94.5 34.5t-34.5 99.5v290q0 32 -5 42t-28 26l-30 21v9l228 25l8 -5v-369q0 -82 64 -82q34 0 84 12z"/>
<glyph glyph-name="yacute" unicode="ý" horiz-adv-x="536" d="M345 180l80 216q17 48 17 65q0 30 -34 39l-26 7v15h167v-15l-18 -7q-17 -6 -28 -23.5t-32 -69.5l-187 -453q-38 -86 -74.5 -122.5t-102.5 -36.5q-41 0 -69.5 21t-28.5 56q0 29 18.5 46t52.5 17q58 0 67 -60q4 -23 10 -26q3 -1 8 -1q18 0 41.5 27t44.5 82l9 22l-198 440 q-21 46 -33.5 62t-26.5 20l-16 6v15h313v-15l-26 -8q-33 -12 -33 -40q0 -13 15 -56l86 -223h4zM203 575l-4 10l118 123q28 28 58 28q26 0 44 -20.5t18 -48.5q0 -49 -51 -59z"/>
<glyph glyph-name="thorn" unicode="þ" horiz-adv-x="606" d="M298 15q57 0 84 50.5t27 187.5q0 108 -28.5 152.5t-83.5 44.5q-35 0 -74 -13v-385q26 -37 75 -37zM223 630v-70q0 -1 -0.5 -8.5t-0.5 -19v-22.5v-47h3q80 73 165 73q87 0 141.5 -61.5t54.5 -184.5q0 -152 -80 -227t-211 -75q-40 0 -73 10v-17q0 -5 0.5 -20t0.5 -24v-57 q0 -33 6 -42t33 -15l28 -6v-16h-301v16l20 5q29 7 35 16t6 42v756q0 39 -5.5 51t-28.5 22l-32 15v11l234 22l9 -5l-2 -36q-2 -46 -2 -86z"/>
<glyph glyph-name="ydieresis" unicode="ÿ" horiz-adv-x="536" d="M345 180l80 216q17 48 17 65q0 30 -34 39l-26 7v15h167v-15l-18 -7q-17 -6 -28 -23.5t-32 -69.5l-187 -453q-38 -86 -74.5 -122.5t-102.5 -36.5q-41 0 -69.5 21t-28.5 56q0 29 18.5 46t52.5 17q58 0 67 -60q4 -23 10 -26q3 -1 8 -1q18 0 41.5 27t44.5 82l9 22l-198 440 q-21 46 -33.5 62t-26.5 20l-16 6v15h313v-15l-26 -8q-33 -12 -33 -40q0 -13 15 -56l86 -223h4zM117 652q0 36 23 57t57 21q36 0 59 -21t23 -57t-23 -57t-59 -21q-34 0 -57 21t-23 57zM317 652q0 36 23.5 57t57.5 21q35 0 58.5 -21t23.5 -57t-23.5 -57t-58.5 -21 q-34 0 -57.5 21t-23.5 57z"/>
<glyph glyph-name="Amacron" unicode="Ā" horiz-adv-x="679" d="M-7 0v15l14 5q26 8 38 26t40 92l202 555h102l203 -557q26 -70 37.5 -90t32.5 -26l18 -5v-15h-359v15l27 7q38 9 38 44q0 36 -19 84l-25 78h-186l-25 -73q-20 -58 -20 -86q0 -19 10 -29t39 -18l25 -7v-15h-192zM252 509l-85 -249h165l-77 249h-3zM197 755v63h276v-63h-276 z"/>
<glyph glyph-name="amacron" unicode="ā" horiz-adv-x="528" d="M157 -12q-67 0 -106 33t-39 91q0 34 12.5 59t38 41t49.5 25t61 18l118 32v99q0 69 -11.5 95.5t-48.5 26.5q-24 0 -33.5 -8t-11.5 -34q-4 -57 -21 -77.5t-58 -20.5q-73 0 -73 60q0 52 58.5 80t170.5 28q201 0 201 -140v-284q0 -30 4 -43t17 -21q21 -10 47 -10v-13 q-47 -37 -122 -37q-89 0 -109 65h-4q-53 -65 -140 -65zM240 55q38 0 51 24v170l-32 -4q-42 -4 -60 -25.5t-18 -73.5q0 -91 59 -91zM119 612v62h272v-62h-272z"/>
<glyph glyph-name="Abreve" unicode="Ă" horiz-adv-x="679" d="M-7 0v15l14 5q26 8 38 26t40 92l202 555h102l203 -557q26 -70 37.5 -90t32.5 -26l18 -5v-15h-359v15l27 7q38 9 38 44q0 36 -19 84l-25 78h-186l-25 -73q-20 -58 -20 -86q0 -19 10 -29t39 -18l25 -7v-15h-192zM252 509l-85 -249h165l-77 249h-3zM335 726q-115 0 -137 150 l10 4q21 -33 48.5 -47t78.5 -14q48 0 76.5 14.5t50.5 46.5l10 -4q-9 -70 -43 -110t-94 -40z"/>
<glyph glyph-name="abreve" unicode="ă" horiz-adv-x="528" d="M157 -12q-67 0 -106 33t-39 91q0 34 12.5 59t38 41t49.5 25t61 18l118 32v99q0 69 -11.5 95.5t-48.5 26.5q-24 0 -33.5 -8t-11.5 -34q-4 -57 -21 -77.5t-58 -20.5q-73 0 -73 60q0 52 58.5 80t170.5 28q201 0 201 -140v-284q0 -30 4 -43t17 -21q21 -10 47 -10v-13 q-47 -37 -122 -37q-89 0 -109 65h-4q-53 -65 -140 -65zM240 55q38 0 51 24v170l-32 -4q-42 -4 -60 -25.5t-18 -73.5q0 -91 59 -91zM256 575q-104 0 -127 150l10 4q17 -32 44.5 -45.5t73.5 -13.5q84 0 116 59l10 -4q-9 -68 -41 -109t-86 -41z"/>
<glyph glyph-name="Aogonek" unicode="Ą" horiz-adv-x="679" d="M680 0h-124q-163 0 -163 -109q0 -24 14 -36.5t36 -12.5q17 0 29 4v-14q-34 -36 -91 -36q-49 0 -74.5 19.5t-25.5 53.5q0 36 34.5 68t101.5 53l-75 238h-186l-25 -73q-20 -58 -20 -86q0 -19 10 -29t39 -18l25 -7v-15h-192v15l14 5q26 8 38 26t40 92l202 555h102l203 -557 q26 -70 37.5 -90t32.5 -26l18 -5v-15zM255 509h-3l-86 -249h166z"/>
<glyph glyph-name="aogonek" unicode="ą" horiz-adv-x="528" d="M325 -128q0 38 32.5 66.5t103.5 55.5q-34 -6 -52 -6q-88 0 -108 65h-4q-53 -65 -140 -65q-67 0 -106 33t-39 91q0 34 12.5 59t38 41t49.5 25t61 18l118 32v99q0 69 -11.5 95.5t-48.5 26.5q-24 0 -33.5 -8t-11.5 -34q-4 -57 -21 -77.5t-58 -20.5q-73 0 -73 60 q0 52 58.5 80t170.5 28q201 0 201 -140v-284q0 -30 4 -43t17 -21q21 -10 47 -10v-12q-93 -72 -93 -133q0 -51 47 -51q18 0 29 4v-14q-32 -36 -87 -36q-50 0 -76.5 20t-26.5 56zM240 55q38 0 51 24v170l-32 -4q-42 -4 -60 -25t-18 -73q0 -92 59 -92z"/>
<glyph glyph-name="Cacute" unicode="Ć" horiz-adv-x="623" d="M365 -12q-158 0 -251 90.5t-93 262.5q0 93 29.5 164.5t81 114t117 64t142.5 21.5q109 0 185 -24l15 -221h-17q-51 106 -90 159q-21 31 -43.5 44.5t-59.5 13.5q-152 0 -152 -316q0 -191 35 -268t110 -77q45 0 72 13.5t53 50.5q27 38 82 159h17l-12 -212q-99 -39 -221 -39z M252 724l-4 10l124 120q26 26 55 26q27 0 45 -19.5t18 -47.5q0 -51 -56 -60z"/>
<glyph glyph-name="cacute" unicode="ć" horiz-adv-x="494" d="M181 575l-4 10l118 123q28 28 58 28q26 0 44 -20.5t18 -48.5q0 -49 -51 -59zM269 -12q-120 0 -187 70.5t-67 192.5q0 73 27 129.5t72 89.5t96.5 49.5t106.5 16.5q80 0 123.5 -26.5t43.5 -77.5q0 -69 -75 -69q-43 0 -59.5 20.5t-20.5 75.5q-4 31 -9.5 39.5t-27.5 8.5 q-102 0 -102 -207q0 -118 34 -173t124 -55q67 0 130 34v-17q-22 -35 -79.5 -68t-129.5 -33z"/>
<glyph glyph-name="Ccircumflex" unicode="Ĉ" horiz-adv-x="623" d="M202 723l-5 9l131 142h56l132 -142l-6 -9l-154 46zM365 -12q-158 0 -251 90.5t-93 262.5q0 93 29.5 164.5t81 114t117 64t142.5 21.5q109 0 185 -24l15 -221h-17q-51 106 -90 159q-21 31 -43.5 44.5t-59.5 13.5q-152 0 -152 -316q0 -191 35 -268t110 -77q45 0 72 13.5 t53 50.5q27 38 82 159h17l-12 -212q-99 -39 -221 -39z"/>
<glyph glyph-name="ccircumflex" unicode="ĉ" horiz-adv-x="494" d="M249 734h52l119 -154l-5 -8l-140 57l-139 -57l-5 8zM269 -12q-120 0 -187 70.5t-67 192.5q0 73 27 129.5t72 89.5t96.5 49.5t106.5 16.5q80 0 123.5 -26.5t43.5 -77.5q0 -69 -75 -69q-43 0 -59.5 20.5t-20.5 75.5q-4 31 -9.5 39.5t-27.5 8.5q-102 0 -102 -207 q0 -118 34 -173t124 -55q67 0 130 34v-17q-22 -35 -79.5 -68t-129.5 -33z"/>
<glyph glyph-name="Cdotaccent" unicode="Ċ" horiz-adv-x="623" d="M365 -12q-158 0 -251 90.5t-93 262.5q0 93 29.5 164.5t81 114t117 64t142.5 21.5q109 0 185 -24l15 -221h-17q-51 106 -90 159q-21 31 -43.5 44.5t-59.5 13.5q-152 0 -152 -316q0 -191 35 -268t110 -77q45 0 72 13.5t53 50.5q27 38 82 159h17l-12 -212q-99 -39 -221 -39z M366 725q-38 0 -63 22.5t-25 59.5q0 36 25 58.5t63 22.5t63 -22.5t25 -58.5q0 -37 -25 -59.5t-63 -22.5z"/>
<glyph glyph-name="cdotaccent" unicode="ċ" horiz-adv-x="494" d="M269 -12q-120 0 -187 70.5t-67 192.5q0 73 27 129.5t72 89.5t96.5 49.5t106.5 16.5q80 0 123.5 -26.5t43.5 -77.5q0 -69 -75 -69q-43 0 -59.5 20.5t-20.5 75.5q-4 31 -9.5 39.5t-27.5 8.5q-102 0 -102 -207q0 -118 34 -173t124 -55q67 0 130 34v-17q-22 -35 -79.5 -68 t-129.5 -33zM194 650q0 36 25.5 59t62.5 23q39 0 63.5 -23t24.5 -59q0 -38 -24.5 -60t-63.5 -22q-38 0 -63 22.5t-25 59.5z"/>
<glyph glyph-name="Ccaron" unicode="Č" horiz-adv-x="623" d="M210 872l5 9l154 -46l154 46l6 -9l-132 -142h-56zM365 -12q-158 0 -251 90.5t-93 262.5q0 93 29.5 164.5t81 114t117 64t142.5 21.5q109 0 185 -24l15 -221h-17q-51 106 -90 159q-21 31 -43.5 44.5t-59.5 13.5q-152 0 -152 -316q0 -191 35 -268t110 -77q45 0 72 13.5 t53 50.5q27 38 82 159h17l-12 -212q-99 -39 -221 -39z"/>
<glyph glyph-name="ccaron" unicode="č" horiz-adv-x="494" d="M302 579h-52l-118 154l5 9l139 -58l140 58l5 -9zM269 -12q-120 0 -187 70.5t-67 192.5q0 73 27 129.5t72 89.5t96.5 49.5t106.5 16.5q80 0 123.5 -26.5t43.5 -77.5q0 -69 -75 -69q-43 0 -59.5 20.5t-20.5 75.5q-4 31 -9.5 39.5t-27.5 8.5q-102 0 -102 -207 q0 -118 34 -173t124 -55q67 0 130 34v-17q-22 -35 -79.5 -68t-129.5 -33z"/>
<glyph glyph-name="Dcaron" unicode="Ď" horiz-adv-x="728" d="M199 872l5 9l154 -46l154 46l6 -9l-132 -142h-56zM7 0v15l30 7q21 6 27.5 10.5t10.5 18.5t4 47v497q0 46 -6.5 56.5t-35.5 19.5l-30 7v15h351q165 0 257 -82.5t92 -250.5q0 -169 -94.5 -264.5t-258.5 -95.5h-347zM342 30q81 0 119.5 76t38.5 230q0 183 -38 254.5 t-122 71.5q-41 0 -62 -7v-559q0 -41 13 -53.5t51 -12.5z"/>
<glyph glyph-name="dcaron" unicode="ď" horiz-adv-x="618" d="M599 569l-10 4l4 139q0 49 46 49q23 0 40 -13.5t19 -32.5q0 -24 -16 -41zM223 -12q-90 0 -146.5 62t-56.5 184q0 78 23.5 137.5t64.5 94.5t92 52.5t111 17.5q41 0 71 -11v111q0 34 -5 43.5t-27 22.5l-40 21v12l242 22l8 -6l-2 -35q-2 -46 -2 -86v-522q0 -38 5 -48.5 t30 -18.5l25 -9v-12l-221 -32l-11 8v61h-3q-76 -69 -158 -69zM312 68q36 0 70 16v381q-24 44 -72 44q-113 0 -113 -231q0 -114 27.5 -162t87.5 -48z"/>
<glyph glyph-name="Dcroat" unicode="Đ" horiz-adv-x="728" d="M24 331v34h55v230q0 46 -6.5 56.5t-35.5 19.5l-30 7v15h351q165 0 257 -82.5t92 -250.5q0 -169 -94.5 -264.5t-258.5 -95.5h-347v15l30 7q21 6 27.5 10.5t10.5 18.5t4 47v233h-55zM342 30q81 0 119.5 76t38.5 230q0 183 -38 254.5t-122 71.5q-41 0 -62 -7v-290h126v-34 h-126v-235q0 -41 13 -53.5t51 -12.5z"/>
<glyph glyph-name="dcroat" unicode="đ" horiz-adv-x="618" d="M553 598l3 -490q0 -38 5 -48.5t30 -18.5l25 -9v-12l-221 -32l-11 8v61h-3q-76 -69 -158 -69q-90 0 -146.5 62t-56.5 184q0 78 23.5 137.5t64.5 94.5t92 52.5t111 17.5q41 0 71 -11v73h-156v36h156v6q0 31 -5.5 40.5t-26.5 21.5l-40 21v12l242 22l8 -6l-4 -34 q-3 -32 -3 -83h62v-36h-62zM312 68q36 0 70 16v381q-24 44 -72 44q-113 0 -113 -231q0 -114 27.5 -162t87.5 -48z"/>
<glyph glyph-name="Emacron" unicode="Ē" horiz-adv-x="602" d="M454 492v-270h-16q-10 44 -31 91q-10 19 -26.5 25t-68.5 6h-34v-242q0 -47 14 -59t75 -12q58 0 80.5 12t46.5 51q34 53 75 157h18l-14 -251h-566v15l30 7q21 6 27.5 10.5t10.5 18.5t4 47v497q0 46 -6.5 56.5t-35.5 19.5l-30 7v15h546l9 -213h-17q-36 83 -62 124 q-21 35 -45.5 46.5t-75.5 11.5q-58 0 -84 -7v-281h35q50 0 66.5 6t27.5 25q18 34 31 87h16zM183 755v63h276v-63h-276z"/>
<glyph glyph-name="emacron" unicode="ē" horiz-adv-x="528" d="M280 -12q-133 0 -199 68t-66 199q0 88 40 153.5t99.5 96.5t127.5 31q226 0 233 -242h-329q0 -126 42 -173.5t129 -47.5q74 0 139 35v-17q-31 -41 -87.5 -72t-128.5 -31zM275 510q-41 0 -64 -43t-25 -149l160 10q0 104 -15.5 143t-55.5 39zM132 612v62h272v-62h-272z"/>
<glyph glyph-name="Ebreve" unicode="Ĕ" horiz-adv-x="602" d="M454 492v-270h-16q-10 44 -31 91q-10 19 -26.5 25t-68.5 6h-34v-242q0 -47 14 -59t75 -12q58 0 80.5 12t46.5 51q34 53 75 157h18l-14 -251h-566v15l30 7q21 6 27.5 10.5t10.5 18.5t4 47v497q0 46 -6.5 56.5t-35.5 19.5l-30 7v15h546l9 -213h-17q-36 83 -62 124 q-21 35 -45.5 46.5t-75.5 11.5q-58 0 -84 -7v-281h35q50 0 66.5 6t27.5 25q18 34 31 87h16zM323 726q-115 0 -137 150l10 4q21 -33 48.5 -47t78.5 -14q48 0 76.5 14.5t50.5 46.5l10 -4q-9 -70 -43 -110t-94 -40z"/>
<glyph glyph-name="ebreve" unicode="ĕ" horiz-adv-x="528" d="M280 -12q-133 0 -199 68t-66 199q0 88 40 153.5t99.5 96.5t127.5 31q226 0 233 -242h-329q0 -126 42 -173.5t129 -47.5q74 0 139 35v-17q-31 -41 -87.5 -72t-128.5 -31zM275 510q-41 0 -64 -43t-25 -149l160 10q0 104 -15.5 143t-55.5 39zM276 575q-104 0 -127 150l10 4 q17 -32 44.5 -45.5t73.5 -13.5q84 0 116 59l10 -4q-9 -68 -41 -109t-86 -41z"/>
<glyph glyph-name="Edotaccent" unicode="Ė" horiz-adv-x="602" d="M312 725q-38 0 -63 22.5t-25 59.5q0 36 25 58.5t63 22.5t63 -22.5t25 -58.5q0 -37 -25 -59.5t-63 -22.5zM454 492v-270h-16q-10 44 -31 91q-10 19 -26.5 25t-68.5 6h-34v-242q0 -47 14 -59t75 -12q58 0 80.5 12t46.5 51q34 53 75 157h18l-14 -251h-566v15l30 7 q21 6 27.5 10.5t10.5 18.5t4 47v497q0 46 -6.5 56.5t-35.5 19.5l-30 7v15h546l9 -213h-17q-36 83 -62 124q-21 35 -45.5 46.5t-75.5 11.5q-58 0 -84 -7v-281h35q50 0 66.5 6t27.5 25q18 34 31 87h16z"/>
<glyph glyph-name="edotaccent" unicode="ė" horiz-adv-x="528" d="M280 -12q-133 0 -199 68t-66 199q0 88 40 153.5t99.5 96.5t127.5 31q226 0 233 -242h-329q0 -126 42 -173.5t129 -47.5q74 0 139 35v-17q-31 -41 -87.5 -72t-128.5 -31zM275 510q-41 0 -64 -43t-25 -149l160 10q0 104 -15.5 143t-55.5 39zM181 650q0 36 25.5 59t62.5 23 q39 0 63.5 -23t24.5 -59q0 -38 -24.5 -60t-63.5 -22q-38 0 -63 22.5t-25 59.5z"/>
<glyph glyph-name="Eogonek" unicode="Ę" horiz-adv-x="602" d="M465 0h-458v15l30 7q21 6 27.5 10.5t10.5 18.5t4 47v497q0 46 -6.5 56.5t-35.5 19.5l-30 7v15h546l9 -213h-17q-36 83 -62 124q-21 35 -45.5 46.5t-75.5 11.5q-58 0 -84 -7v-281h35q50 0 66.5 6t27.5 25q18 34 31 87h16v-270h-16q-10 44 -31 91q-10 19 -26.5 25t-68.5 6 h-34v-242q0 -47 14 -59t75 -12q58 0 80.5 12t46.5 51q34 53 75 157h18l-14 -251h-89q-44 -53 -44 -114q0 -44 43 -44q21 0 32 4v-14q-32 -36 -88 -36q-50 0 -76.5 20t-26.5 56q0 76 141 128z"/>
<glyph glyph-name="eogonek" unicode="ę" horiz-adv-x="528" d="M230 -128q0 36 38 69t99 59q-48 -12 -86 -12q-133 0 -199.5 68.5t-66.5 199.5q0 130 80.5 205t186.5 75q229 0 233 -242h-328v-3q2 -124 43 -171t127 -47q74 0 139 35v-17q-34 -36 -89 -85q-64 -56 -64 -114q0 -50 49 -50q17 0 28 4v-14q-32 -36 -88 -36q-50 0 -76 20.5 t-26 55.5zM275 510q-84 0 -88 -192l159 10q0 104 -15.5 143t-55.5 39z"/>
<glyph glyph-name="Ecaron" unicode="Ě" horiz-adv-x="602" d="M165 872l5 9l154 -46l154 46l6 -9l-132 -142h-56zM454 492v-270h-16q-10 44 -31 91q-10 19 -26.5 25t-68.5 6h-34v-242q0 -47 14 -59t75 -12q58 0 80.5 12t46.5 51q34 53 75 157h18l-14 -251h-566v15l30 7q21 6 27.5 10.5t10.5 18.5t4 47v497q0 46 -6.5 56.5t-35.5 19.5 l-30 7v15h546l9 -213h-17q-36 83 -62 124q-21 35 -45.5 46.5t-75.5 11.5q-58 0 -84 -7v-281h35q50 0 66.5 6t27.5 25q18 34 31 87h16z"/>
<glyph glyph-name="ecaron" unicode="ě" horiz-adv-x="528" d="M297 579h-52l-118 154l5 9l139 -58l140 58l5 -9zM280 -12q-133 0 -199 68t-66 199q0 88 40 153.5t99.5 96.5t127.5 31q226 0 233 -242h-329q0 -126 42 -173.5t129 -47.5q74 0 139 35v-17q-31 -41 -87.5 -72t-128.5 -31zM275 510q-41 0 -64 -43t-25 -149l160 10 q0 104 -15.5 143t-55.5 39z"/>
<glyph glyph-name="Gcircumflex" unicode="Ĝ" horiz-adv-x="680" d="M222 723l-5 9l131 142h56l132 -142l-6 -9l-154 46zM384 -12q-181 0 -272 91t-91 265q0 95 31.5 166.5t87 113t123 61.5t146.5 20q107 0 190 -25l11 -219h-17q-44 97 -78 145q-29 42 -55.5 56.5t-67.5 14.5q-85 0 -125 -77t-40 -240q0 -189 31.5 -266.5t115.5 -77.5 q44 0 71 20v162q0 46 -7 58t-37 18l-29 7v15h312v-15l-25 -6q-19 -6 -23.5 -17.5t-4.5 -57.5v-171q-41 -17 -110.5 -29t-136.5 -12z"/>
<glyph glyph-name="gcircumflex" unicode="ĝ" horiz-adv-x="522" d="M220 734h52l119 -154l-5 -8l-140 57l-139 -57l-5 8zM212 -202q-224 0 -224 108q0 37 32 62.5t95 35.5v2q-93 23 -93 102q0 39 23.5 70.5t56.5 50.5v2q-83 43 -83 129q0 82 62 129t156 47q76 0 131 -30q58 56 111 56q29 0 46.5 -14.5t17.5 -43.5q0 -22 -12.5 -36.5 t-37.5 -14.5q-22 0 -30.5 8t-15.5 27q-15 40 -63 6v-2q72 -49 72 -118q0 -81 -62.5 -127.5t-156.5 -46.5q-65 0 -116 20q-20 -20 -20 -45q0 -29 48 -29h194q168 0 168 -135q0 -95 -82.5 -154t-216.5 -59zM234 -175q170 0 170 103q0 38 -22.5 54.5t-72.5 16.5h-171 q-27 -21 -27 -78q0 -47 28.5 -71.5t94.5 -24.5zM237 226q35 0 48 28t13 110q0 86 -13.5 116t-47.5 30t-47 -28.5t-13 -111.5q0 -84 13.5 -114t46.5 -30z"/>
<glyph glyph-name="Gbreve" unicode="Ğ" horiz-adv-x="680" d="M376 726q-115 0 -137 150l10 4q21 -33 48.5 -47t78.5 -14q48 0 76.5 14.5t50.5 46.5l10 -4q-9 -70 -43 -110t-94 -40zM384 -12q-181 0 -272 91t-91 265q0 95 31.5 166.5t87 113t123 61.5t146.5 20q107 0 190 -25l11 -219h-17q-44 97 -78 145q-29 42 -55.5 56.5 t-67.5 14.5q-85 0 -125 -77t-40 -240q0 -189 31.5 -266.5t115.5 -77.5q44 0 71 20v162q0 46 -7 58t-37 18l-29 7v15h312v-15l-25 -6q-19 -6 -23.5 -17.5t-4.5 -57.5v-171q-41 -17 -110.5 -29t-136.5 -12z"/>
<glyph glyph-name="gbreve" unicode="ğ" horiz-adv-x="522" d="M212 -202q-224 0 -224 108q0 37 32 62.5t95 35.5v2q-93 23 -93 102q0 39 23.5 70.5t56.5 50.5v2q-83 43 -83 129q0 82 62 129t156 47q76 0 131 -30q58 56 111 56q29 0 46.5 -14.5t17.5 -43.5q0 -22 -12.5 -36.5t-37.5 -14.5q-22 0 -30.5 8t-15.5 27q-15 40 -63 6v-2 q72 -49 72 -118q0 -81 -62.5 -127.5t-156.5 -46.5q-65 0 -116 20q-20 -20 -20 -45q0 -29 48 -29h194q168 0 168 -135q0 -95 -82.5 -154t-216.5 -59zM234 -175q170 0 170 103q0 38 -22.5 54.5t-72.5 16.5h-171q-27 -21 -27 -78q0 -47 28.5 -71.5t94.5 -24.5zM237 226 q35 0 48 28t13 110q0 86 -13.5 116t-47.5 30t-47 -28.5t-13 -111.5q0 -84 13.5 -114t46.5 -30zM248 575q-104 0 -127 150l10 4q17 -32 44.5 -45.5t73.5 -13.5q84 0 116 59l10 -4q-9 -68 -41 -109t-86 -41z"/>
<glyph glyph-name="Gdotaccent" unicode="Ġ" horiz-adv-x="680" d="M375 725q-38 0 -63 22.5t-25 59.5q0 36 25 58.5t63 22.5t63 -22.5t25 -58.5q0 -37 -25 -59.5t-63 -22.5zM384 -12q-181 0 -272 91t-91 265q0 95 31.5 166.5t87 113t123 61.5t146.5 20q107 0 190 -25l11 -219h-17q-44 97 -78 145q-29 42 -55.5 56.5t-67.5 14.5 q-85 0 -125 -77t-40 -240q0 -189 31.5 -266.5t115.5 -77.5q44 0 71 20v162q0 46 -7 58t-37 18l-29 7v15h312v-15l-25 -6q-19 -6 -23.5 -17.5t-4.5 -57.5v-171q-41 -17 -110.5 -29t-136.5 -12z"/>
<glyph glyph-name="gdotaccent" unicode="ġ" horiz-adv-x="522" d="M212 -202q-224 0 -224 108q0 37 32 62.5t95 35.5v2q-93 23 -93 102q0 39 23.5 70.5t56.5 50.5v2q-83 43 -83 129q0 82 62 129t156 47q76 0 131 -30q58 56 111 56q29 0 46.5 -14.5t17.5 -43.5q0 -22 -12.5 -36.5t-37.5 -14.5q-22 0 -30.5 8t-15.5 27q-15 40 -63 6v-2 q72 -49 72 -118q0 -81 -62.5 -127.5t-156.5 -46.5q-65 0 -116 20q-20 -20 -20 -45q0 -29 48 -29h194q168 0 168 -135q0 -95 -82.5 -154t-216.5 -59zM234 -175q170 0 170 103q0 38 -22.5 54.5t-72.5 16.5h-171q-27 -21 -27 -78q0 -47 28.5 -71.5t94.5 -24.5zM237 226 q35 0 48 28t13 110q0 86 -13.5 116t-47.5 30t-47 -28.5t-13 -111.5q0 -84 13.5 -114t46.5 -30zM152 650q0 36 25.5 59t62.5 23q39 0 63.5 -23t24.5 -59q0 -38 -24.5 -60t-63.5 -22q-38 0 -63 22.5t-25 59.5z"/>
<glyph glyph-name="Gcommaaccent" unicode="Ģ" horiz-adv-x="680" d="M272 -244l-2 10q95 27 103 92q-13 -13 -38 -13q-26 0 -41 15t-15 39q0 25 20 43t54 18q36 0 59 -22t23 -57q0 -53 -43 -86t-120 -39zM384 -12q-181 0 -272 91t-91 265q0 95 31.5 166.5t87 113t123 61.5t146.5 20q107 0 190 -25l11 -219h-17q-44 97 -78 145 q-29 42 -55.5 56.5t-67.5 14.5q-85 0 -125 -77t-40 -240q0 -189 31.5 -266.5t115.5 -77.5q44 0 71 20v162q0 46 -7 58t-37 18l-29 7v15h312v-15l-25 -6q-19 -6 -23.5 -17.5t-4.5 -57.5v-171q-41 -17 -110.5 -29t-136.5 -12z"/>
<glyph glyph-name="gcommaaccent" unicode="ģ" horiz-adv-x="522" d="M331 767l2 -10q-93 -26 -104 -93q14 14 39 14t40.5 -15t15.5 -40q0 -24 -20.5 -42t-53.5 -18q-36 0 -59.5 22t-23.5 57q0 53 43 86t121 39zM212 -202q-224 0 -224 108q0 37 32 62.5t95 35.5v2q-93 23 -93 102q0 39 23.5 70.5t56.5 50.5v2q-83 43 -83 129q0 82 62 129 t156 47q76 0 131 -30q58 56 111 56q29 0 46.5 -14.5t17.5 -43.5q0 -22 -12.5 -36.5t-37.5 -14.5q-22 0 -30.5 8t-15.5 27q-15 40 -63 6v-2q72 -49 72 -118q0 -81 -62.5 -127.5t-156.5 -46.5q-65 0 -116 20q-20 -20 -20 -45q0 -29 48 -29h194q168 0 168 -135 q0 -95 -82.5 -154t-216.5 -59zM234 -175q170 0 170 103q0 38 -22.5 54.5t-72.5 16.5h-171q-27 -21 -27 -78q0 -47 28.5 -71.5t94.5 -24.5zM237 226q35 0 48 28t13 110q0 86 -13.5 116t-47.5 30t-47 -28.5t-13 -111.5q0 -84 13.5 -114t46.5 -30z"/>
<glyph glyph-name="Hcircumflex" unicode="Ĥ" horiz-adv-x="765" d="M7 0v15l30 7q21 6 27.5 10.5t10.5 18.5t4 47v497q0 46 -6.5 56.5t-35.5 19.5l-30 7v15h341v-15l-27 -7q-31 -8 -37 -19t-6 -57v-224h209v224q0 45 -7 56t-36 20l-27 7v15h341v-15l-30 -7q-22 -6 -28.5 -10.5t-10.5 -18.5t-4 -47v-497q0 -46 6.5 -56.5t36.5 -19.5l30 -7 v-15h-341v15l27 7q29 9 36 20t7 56v240h-209v-240q0 -45 7 -56t36 -20l27 -7v-15h-341zM229 723l-5 9l131 142h56l132 -142l-6 -9l-154 46z"/>
<glyph glyph-name="hcircumflex" unicode="ĥ" horiz-adv-x="619" d="M427 536q62 0 96 -34t34 -100v-324q0 -34 6 -41t35 -16l21 -6v-15h-289v15l18 5q26 6 31 14.5t5 43.5v292q0 43 -15.5 60t-48.5 17q-48 0 -84 -12v-357q0 -35 5.5 -43.5t31.5 -14.5l18 -5v-15h-289v15l20 6q29 8 35 15.5t6 41.5v558q0 39 -5 50t-29 23l-32 15v11l235 22 l8 -5l-2 -36q-2 -46 -2 -86v-166h3q99 72 188 72zM14 782l-5 9l131 142h56l132 -142l-6 -9l-154 46z"/>
<glyph glyph-name="Hbar" unicode="Ħ" horiz-adv-x="765" d="M10 499v29h753v-29h-753zM7 0v15l30 7q21 6 27.5 10.5t10.5 18.5t4 47v497q0 46 -6.5 56.5t-35.5 19.5l-30 7v15h341v-15l-27 -7q-31 -8 -37 -19t-6 -57v-224h209v224q0 45 -7 56t-36 20l-27 7v15h341v-15l-30 -7q-22 -6 -28.5 -10.5t-10.5 -18.5t-4 -47v-497 q0 -46 6.5 -56.5t36.5 -19.5l30 -7v-15h-341v15l27 7q29 9 36 20t7 56v240h-209v-240q0 -45 7 -56t36 -20l27 -7v-15h-341z"/>
<glyph glyph-name="hbar" unicode="ħ" horiz-adv-x="620" d="M-5 600v32h387v-32h-387zM427 536q62 0 96 -34t34 -100v-324q0 -34 6 -41t35 -16l21 -6v-15h-289v15l18 5q26 6 31 14.5t5 43.5v292q0 43 -15.5 60t-48.5 17q-48 0 -84 -12v-357q0 -35 5.5 -43.5t31.5 -14.5l18 -5v-15h-289v15l20 6q29 8 35 15.5t6 41.5v558q0 39 -5 50 t-29 23l-32 15v11l235 22l8 -5l-2 -36q-2 -46 -2 -86v-166h3q99 72 188 72z"/>
<glyph glyph-name="Itilde" unicode="Ĩ" horiz-adv-x="362" d="M7 0v15l32 7q29 6 36 18t7 58v497q0 46 -7 58t-36 18l-32 7v15h348v-15l-32 -7q-29 -6 -36 -18t-7 -58v-497q0 -46 7 -58t36 -18l32 -7v-15h-348zM252 743q-20 0 -82.5 10t-84.5 10q-20 0 -32 -9t-27 -33l-13 7q24 71 45.5 103t57.5 32q20 0 82 -10.5t84 -10.5 q20 0 32.5 9.5t27.5 33.5l13 -7q-23 -72 -44 -103.5t-59 -31.5z"/>
<glyph glyph-name="itilde" unicode="ĩ" horiz-adv-x="299" d="M2 0v15l21 6q28 8 34 16t6 41v336q0 32 -5 41.5t-30 25.5l-31 20v9l236 25l7 -5q-4 -55 -4 -125v-327q0 -34 6 -41t35 -16l20 -6v-15h-295zM3 571l-12 7q22 70 44.5 102.5t56.5 32.5q20 0 72.5 -9.5t73.5 -9.5q20 0 32 9.5t27 33.5l13 -7q-23 -72 -44 -103.5t-58 -31.5 q-20 0 -72.5 9t-73.5 9q-20 0 -32 -9t-27 -33z"/>
<glyph glyph-name="Imacron" unicode="Ī" horiz-adv-x="362" d="M7 0v15l32 7q29 6 36 18t7 58v497q0 46 -7 58t-36 18l-32 7v15h348v-15l-32 -7q-29 -6 -36 -18t-7 -58v-497q0 -46 7 -58t36 -18l32 -7v-15h-348zM44 755v63h276v-63h-276z"/>
<glyph glyph-name="imacron" unicode="ī" horiz-adv-x="299" d="M2 0v16l21 5q28 8 34 17t6 43v331q0 32 -5 42t-30 26l-31 21v9l236 25l7 -5q-4 -52 -4 -125v-324q0 -34 6 -43.5t35 -16.5l20 -5v-16h-295zM6 612v62h270v-62h-270z"/>
<glyph glyph-name="Ibreve" unicode="Ĭ" horiz-adv-x="362" d="M7 0v15l32 7q29 6 36 18t7 58v497q0 46 -7 58t-36 18l-32 7v15h348v-15l-32 -7q-29 -6 -36 -18t-7 -58v-497q0 -46 7 -58t36 -18l32 -7v-15h-348zM181 726q-115 0 -137 150l10 4q21 -33 48.5 -47t78.5 -14q48 0 76.5 14.5t50.5 46.5l10 -4q-9 -70 -43 -110t-94 -40z"/>
<glyph glyph-name="ibreve" unicode="ĭ" horiz-adv-x="299" d="M2 0v15l21 6q28 8 34 16t6 41v336q0 32 -5 41.5t-30 25.5l-31 20v9l236 25l7 -5q-4 -55 -4 -125v-327q0 -34 6 -41t35 -16l20 -6v-15h-295zM150 575q-104 0 -127 150l10 4q17 -32 44.5 -45.5t73.5 -13.5q84 0 116 59l10 -4q-9 -68 -41 -109t-86 -41z"/>
<glyph glyph-name="Iogonek" unicode="Į" horiz-adv-x="362" d="M355 0h-86q-44 -53 -44 -114q0 -44 43 -44q20 0 32 4v-14q-36 -36 -88 -36q-50 0 -76.5 20t-26.5 56q0 76 141 128h-243v15l32 7q29 6 36 18t7 58v497q0 46 -7 58t-36 18l-32 7v15h348v-15l-32 -7q-29 -6 -36 -18t-7 -58v-497q0 -46 7 -58t36 -18l32 -7v-15z"/>
<glyph glyph-name="iogonek" unicode="į" horiz-adv-x="299" d="M58 663q0 36 25 58.5t62 22.5q38 0 63 -22.5t25 -58.5q0 -38 -24.5 -59.5t-63.5 -21.5q-38 0 -62.5 22t-24.5 59zM194 0h-192v15l21 6q28 8 34 16t6 41v336q0 32 -5 41.5t-30 25.5l-31 20v9l236 25l7 -5q-4 -55 -4 -125v-327q0 -34 6 -41t35 -16l20 -6v-15h-84 q-44 -53 -44 -114q0 -44 43 -44q21 0 32 4v-14q-32 -36 -88 -36q-50 0 -76.5 20t-26.5 56q0 76 141 128z"/>
<glyph glyph-name="Idotaccent" unicode="İ" horiz-adv-x="362" d="M7 0v15l32 7q29 6 36 18t7 58v497q0 46 -7 58t-36 18l-32 7v15h348v-15l-32 -7q-29 -6 -36 -18t-7 -58v-497q0 -46 7 -58t36 -18l32 -7v-15h-348zM181 725q-38 0 -63 22.5t-25 59.5q0 36 25 58.5t63 22.5t63 -22.5t25 -58.5q0 -37 -25 -59.5t-63 -22.5z"/>
<glyph glyph-name="dotlessi" unicode="ı" horiz-adv-x="299" d="M2 0v15l21 6q28 8 34 16t6 41v336q0 32 -5 41.5t-30 25.5l-31 20v9l236 25l7 -5q-4 -55 -4 -125v-327q0 -34 6 -41t35 -16l20 -6v-15h-295z"/>
<glyph glyph-name="IJ" unicode="Ĳ" horiz-adv-x="859" d="M7 0v15l32 7q29 6 36 18t7 58v497q0 46 -7 58t-36 18l-32 7v15h346v-15l-30 -7q-29 -6 -36 -18t-7 -58v-497q0 -46 7 -58t36 -18l32 -7v-15h-348zM521 -10q-82 0 -127 30.5t-45 78.5q0 38 21.5 57.5t60.5 19.5q45 0 66 -26.5t25 -104.5q2 -14 6.5 -19.5t14.5 -5.5 q40 0 40 91v484q0 46 -7 58t-35 18l-31 7v15h343v-15l-30 -7q-30 -9 -36 -19t-6 -57v-350q0 -115 -69 -185t-191 -70z"/>
<glyph glyph-name="ij" unicode="ĳ" horiz-adv-x="582" d="M2 0v15l21 6q28 8 34 16t6 41v336q0 32 -5 41.5t-30 25.5l-31 20v9l236 25l7 -5q-4 -55 -4 -125v-327q0 -34 6 -41t35 -16l20 -6v-15h-295zM58 663q0 36 25 58.5t62 22.5q38 0 63 -22.5t25 -58.5q0 -38 -24.5 -59.5t-63.5 -21.5q-38 0 -62.5 22t-24.5 59zM533 405v-386 q0 -99 -62 -160t-158 -61q-71 0 -109.5 25.5t-38.5 71.5q0 66 73 66q38 0 54.5 -21.5t22.5 -84.5q2 -19 4.5 -24t10.5 -5q31 0 31 71v517q0 31 -5.5 41t-30.5 26l-30 20v9l235 25l7 -5q-4 -53 -4 -125zM355 663q0 36 25 58.5t62 22.5q38 0 63 -22.5t25 -58.5 q0 -38 -24.5 -59.5t-63.5 -21.5q-38 0 -62.5 22t-24.5 59z"/>
<glyph glyph-name="Jcircumflex" unicode="Ĵ" horiz-adv-x="503" d="M171 723l-5 9l131 142h56l132 -142l-6 -9l-154 46zM165 -10q-82 0 -126.5 30.5t-44.5 78.5q0 38 21.5 57.5t60.5 19.5q45 0 65 -26.5t26 -104.5q1 -25 21 -25q39 0 39 91v484q0 47 -6.5 58.5t-34.5 17.5l-31 7v15h343v-15l-30 -7q-31 -8 -37 -18t-6 -58v-350 q0 -115 -69 -185t-191 -70z"/>
<glyph glyph-name="jcircumflex" unicode="ĵ" horiz-adv-x="283" d="M116 734h52l119 -154l-5 -8l-140 57l-139 -57l-5 8zM234 405v-386q0 -99 -62 -160t-158 -61q-71 0 -109.5 25.5t-38.5 71.5q0 66 73 66q38 0 54.5 -21.5t22.5 -84.5q2 -19 4.5 -24t10.5 -5q31 0 31 71v517q0 31 -5.5 41t-30.5 26l-30 20v9l235 25l7 -5q-4 -53 -4 -125z "/>
<glyph glyph-name="Kcommaaccent" unicode="Ķ" horiz-adv-x="720" d="M728 0h-242q-108 142 -189 326v17l182 213q35 41 35 74q0 28 -39 39l-29 9v15h243v-15l-24 -6q-29 -8 -52.5 -25.5t-63.5 -61.5l-117 -132q53 -111 119.5 -223t121.5 -182q21 -24 40 -28l15 -5v-15zM7 0v15l30 7q21 6 27.5 10.5t10.5 18.5t4 47v497q0 46 -6.5 56.5 t-35.5 19.5l-30 7v15h341v-15l-27 -7q-31 -8 -37 -19t-6 -57v-497q0 -45 7 -56t36 -20l27 -7v-15h-341zM271 -244l-2 10q95 27 103 92q-13 -13 -38 -13q-26 0 -41 15t-15 39q0 25 20 43t54 18q36 0 59 -22t23 -57q0 -53 -43 -86t-120 -39z"/>
<glyph glyph-name="kcommaaccent" unicode="ķ" horiz-adv-x="593" d="M602 0h-210q-88 116 -144 245v10l109 120q51 58 51 86q0 29 -46 41l-15 5v15h224v-16l-11 -3q-47 -11 -93 -58l-95 -95q38 -78 92.5 -168.5t90.5 -133.5q20 -26 38 -30l9 -3v-15zM236 630v-551q0 -35 5.5 -44t29.5 -15l17 -5v-15h-286v15l20 6q29 7 35 15.5t6 42.5v558 q0 38 -5 49t-29 23l-32 15v11l235 22l8 -5l-2 -36q-2 -46 -2 -86zM223 -244l-2 10q95 27 103 92q-13 -13 -38 -13q-26 0 -41 15t-15 39q0 25 20 43t54 18q36 0 59 -22t23 -57q0 -53 -43 -86t-120 -39z"/>
<glyph glyph-name="Lacute" unicode="Ĺ" horiz-adv-x="584" d="M77 724l-4 10l124 120q26 26 55 26q27 0 45 -19.5t18 -47.5q0 -51 -56 -60zM7 0v15l30 7q21 6 27.5 10.5t10.5 18.5t4 47v497q0 46 -6.5 56.5t-35.5 19.5l-30 7v15h348v-15l-34 -7q-30 -6 -36.5 -17.5t-6.5 -58.5v-499q0 -42 13 -54t66 -12q42 0 62.5 5t33 17t29.5 41 q35 59 77 170h18l-18 -263h-552z"/>
<glyph glyph-name="lacute" unicode="ĺ" horiz-adv-x="303" d="M39 784l-4 10l124 120q26 26 55 26q27 0 45 -19.5t18 -47.5q0 -51 -56 -60zM238 630v-551q0 -32 7 -40.5t37 -17.5l20 -6v-15h-300v15l20 6q31 8 37 16t6 42v557q0 38 -5.5 49.5t-30.5 23.5l-32 15v11l237 22l8 -5l-2 -36q-2 -46 -2 -86z"/>
<glyph glyph-name="Lcommaaccent" unicode="Ļ" horiz-adv-x="584" d="M219 -244l-2 10q95 27 103 92q-13 -13 -38 -13q-26 0 -41 15t-15 39q0 25 20 43t54 18q36 0 59 -22t23 -57q0 -53 -43 -86t-120 -39zM7 0v15l30 7q21 6 27.5 10.5t10.5 18.5t4 47v497q0 46 -6.5 56.5t-35.5 19.5l-30 7v15h348v-15l-34 -7q-30 -6 -36.5 -17.5t-6.5 -58.5 v-499q0 -42 13 -54t66 -12q42 0 62.5 5t33 17t29.5 41q35 59 77 170h18l-18 -263h-552z"/>
<glyph glyph-name="lcommaaccent" unicode="ļ" horiz-adv-x="303" d="M65 -244l-2 10q95 27 103 92q-13 -13 -38 -13q-26 0 -41 15t-15 39q0 25 20 43t54 18q36 0 59 -22t23 -57q0 -53 -43 -86t-120 -39zM238 630v-551q0 -32 7 -40.5t37 -17.5l20 -6v-15h-300v15l20 6q31 8 37 16t6 42v557q0 38 -5.5 49.5t-30.5 23.5l-32 15v11l237 22l8 -5 l-2 -36q-2 -46 -2 -86z"/>
<glyph glyph-name="Lcaron" unicode="Ľ" horiz-adv-x="584" d="M394 513l-10 4l4 139q0 49 46 49q23 0 40 -13.5t19 -32.5q0 -24 -16 -41zM7 0v15l30 7q21 6 27.5 10.5t10.5 18.5t4 47v497q0 46 -6.5 56.5t-35.5 19.5l-30 7v15h348v-15l-34 -7q-30 -6 -36.5 -17.5t-6.5 -58.5v-499q0 -42 13 -54t66 -12q42 0 62.5 5t33 17t29.5 41 q35 59 77 170h18l-18 -263h-552z"/>
<glyph glyph-name="lcaron" unicode="ľ" horiz-adv-x="303" d="M281 569l-10 4l4 139q0 49 46 49q23 0 40 -13.5t19 -32.5q0 -24 -16 -41zM238 630v-551q0 -32 7 -40.5t37 -17.5l20 -6v-15h-300v15l20 6q31 8 37 16t6 42v557q0 38 -5.5 49.5t-30.5 23.5l-32 15v11l237 22l8 -5l-2 -36q-2 -46 -2 -86z"/>
<glyph glyph-name="Ldot" unicode="Ŀ" horiz-adv-x="584" d="M7 0v15l30 7q21 6 27.5 10.5t10.5 18.5t4 47v497q0 46 -6.5 56.5t-35.5 19.5l-30 7v15h348v-15l-34 -7q-30 -6 -36.5 -17.5t-6.5 -58.5v-499q0 -42 13 -54t66 -12q60 0 84 11t50 52q31 45 66 132h18l-16 -225h-552zM480 295q-36 0 -61.5 25t-25.5 61q0 38 25 62.5 t62 24.5q35 0 61 -25t26 -62q0 -36 -26 -61t-61 -25z"/>
<glyph glyph-name="ldot" unicode="ŀ" horiz-adv-x="439" d="M238 630v-551q0 -32 7 -40.5t37 -17.5l20 -6v-15h-300v15l20 6q31 8 37 16t6 42v557q0 38 -5.5 49.5t-30.5 23.5l-32 15v11l237 22l8 -5l-2 -36q-2 -46 -2 -86zM271 370q0 36 24.5 60t60.5 24t61.5 -24t25.5 -60q0 -35 -26.5 -60.5t-60.5 -25.5q-36 0 -60.5 25t-24.5 61z "/>
<glyph glyph-name="Lslash" unicode="Ł" horiz-adv-x="585" d="M7 242v31l73 25v297q0 46 -6.5 56.5t-35.5 19.5l-30 7v15h348v-15l-34 -7q-30 -6 -36.5 -17.5t-6.5 -58.5v-229l186 65v-31l-186 -65v-237q0 -42 13 -54t66 -12q60 0 80.5 10.5t44.5 50.5q35 59 77 170h18l-18 -263h-552v15l30 7q21 6 27.5 10.5t10.5 18.5t4 47v169z"/>
<glyph glyph-name="lslash" unicode="ł" horiz-adv-x="303" d="M239 630v-145l65 35v-35l-65 -35v-371q0 -32 7 -40.5t37 -17.5l20 -6v-15h-301v15l20 6q31 8 37 16t6 42v278l-65 -34v36l65 34v243q0 38 -5.5 49.5t-30.5 23.5l-32 15v11l237 22l9 -5l-2 -36q-2 -46 -2 -86z"/>
<glyph glyph-name="Nacute" unicode="Ń" horiz-adv-x="670" d="M253 724l-4 10l124 120q26 26 55 26q27 0 45 -19.5t18 -47.5q0 -51 -56 -60zM534 -1l-415 585h-3v-461q0 -58 8 -75.5t41 -24.5l33 -8v-15h-191v15l30 8q28 8 35 24t7 71v477q0 39 -8.5 54t-34.5 22l-29 7v15h268l276 -384h3v261q0 59 -7.5 75t-40.5 24l-36 9v15h193v-15 l-30 -8q-27 -6 -34.5 -23.5t-7.5 -71.5v-576h-57z"/>
<glyph glyph-name="nacute" unicode="ń" horiz-adv-x="620" d="M221 575l-4 10l118 123q28 28 58 28q26 0 44 -20.5t18 -48.5q0 -49 -51 -59zM2 0v15l21 6q28 8 34 16t6 41v335q0 31 -5 41t-28 26l-31 21v9l226 25l8 -5l-1 -72h3q106 78 192 78q62 0 96 -34t34 -100v-324q0 -34 6 -41t35 -16l21 -6v-15h-290v15l19 5q26 6 31 14.5 t5 43.5v291q0 43 -15 59.5t-49 16.5q-50 0 -84 -12v-355q0 -35 5.5 -43.5t30.5 -14.5l19 -5v-15h-289z"/>
<glyph glyph-name="Ncommaaccent" unicode="Ņ" horiz-adv-x="670" d="M244 -244l-2 10q95 27 103 92q-13 -13 -38 -13q-26 0 -41 15t-15 39q0 25 20 43t54 18q36 0 59 -22t23 -57q0 -53 -43 -86t-120 -39zM534 -1l-415 585h-3v-461q0 -58 8 -75.5t41 -24.5l33 -8v-15h-191v15l30 8q28 8 35 24t7 71v477q0 39 -8.5 54t-34.5 22l-29 7v15h268 l276 -384h3v261q0 59 -7.5 75t-40.5 24l-36 9v15h193v-15l-30 -8q-27 -6 -34.5 -23.5t-7.5 -71.5v-576h-57z"/>
<glyph glyph-name="ncommaaccent" unicode="ņ" horiz-adv-x="620" d="M220 -244l-2 10q95 27 103 92q-13 -13 -38 -13q-26 0 -41 15t-15 39q0 25 20 43t54 18q36 0 59 -22t23 -57q0 -53 -43 -86t-120 -39zM2 0v15l21 6q28 8 34 16t6 41v335q0 31 -5 41t-28 26l-31 21v9l226 25l8 -5l-1 -72h3q106 78 192 78q62 0 96 -34t34 -100v-324 q0 -34 6 -41t35 -16l21 -6v-15h-290v15l19 5q26 6 31 14.5t5 43.5v291q0 43 -15 59.5t-49 16.5q-50 0 -84 -12v-355q0 -35 5.5 -43.5t30.5 -14.5l19 -5v-15h-289z"/>
<glyph glyph-name="Ncaron" unicode="Ň" horiz-adv-x="670" d="M184 872l5 9l154 -46l154 46l6 -9l-132 -142h-56zM534 -1l-415 585h-3v-461q0 -58 8 -75.5t41 -24.5l33 -8v-15h-191v15l30 8q28 8 35 24t7 71v477q0 39 -8.5 54t-34.5 22l-29 7v15h268l276 -384h3v261q0 59 -7.5 75t-40.5 24l-36 9v15h193v-15l-30 -8 q-27 -6 -34.5 -23.5t-7.5 -71.5v-576h-57z"/>
<glyph glyph-name="ncaron" unicode="ň" horiz-adv-x="620" d="M334 579h-52l-118 154l5 9l139 -58l140 58l5 -9zM2 0v15l21 6q28 8 34 16t6 41v335q0 31 -5 41t-28 26l-31 21v9l226 25l8 -5l-1 -72h3q106 78 192 78q62 0 96 -34t34 -100v-324q0 -34 6 -41t35 -16l21 -6v-15h-290v15l19 5q26 6 31 14.5t5 43.5v291q0 43 -15 59.5 t-49 16.5q-50 0 -84 -12v-355q0 -35 5.5 -43.5t30.5 -14.5l19 -5v-15h-289z"/>
<glyph glyph-name="napostrophe" unicode="ŉ" horiz-adv-x="667" d="M-92 460l-3 12q103 36 101 120q-12 -20 -39 -20q-26 0 -42.5 17t-16.5 46q0 32 22 51t55 19q38 0 63 -24.5t25 -69.5q0 -122 -165 -151zM50 0v15l21 6q28 8 34 16t6 41v335q0 31 -5 41t-28 26l-31 21v9l226 25l8 -5l-1 -72h3q106 78 192 78q62 0 96 -34t34 -100v-324 q0 -34 6 -41t35 -16l21 -6v-15h-290v15l19 5q26 6 31 14.5t5 43.5v291q0 43 -15 59.5t-49 16.5q-50 0 -84 -12v-355q0 -35 5.5 -43.5t30.5 -14.5l19 -5v-15h-289z"/>
<glyph glyph-name="Eng" unicode="Ŋ" horiz-adv-x="670" d="M551 -25l-432 609h-3v-461q0 -58 8 -75.5t41 -24.5l33 -8v-15h-191v15l30 8q27 6 34.5 23t7.5 72v477q0 39 -8.5 54t-34.5 22l-29 7v15h268l276 -384h3v261q0 59 -7.5 75t-40.5 24l-36 9v15h193v-15l-30 -8q-27 -6 -34.5 -23.5t-7.5 -71.5v-582q0 -176 -150 -176 q-65 0 -96.5 27t-31.5 68q0 27 18 43.5t48 16.5q34 0 50.5 -19t27.5 -69q5 -31 25 -31q25 0 47 31.5t22 90.5z"/>
<glyph glyph-name="eng" unicode="ŋ" horiz-adv-x="604" d="M384 -103v472q0 43 -15 59.5t-49 16.5q-50 0 -84 -12v-355q0 -35 5.5 -43.5t30.5 -14.5l19 -5v-15h-289v15l21 6q28 8 34 16t6 41v335q0 31 -5 41t-28 26l-31 21v9l226 25l8 -5l-1 -72h3q106 78 192 78q62 0 96 -34t34 -100v-374q0 -104 -63 -167t-157 -63 q-68 0 -104.5 23t-36.5 65q0 28 17 43.5t48 15.5q32 0 48.5 -21t21.5 -76q3 -24 14 -24q15 0 27 17.5t12 55.5z"/>
<glyph glyph-name="Omacron" unicode="Ō" horiz-adv-x="727" d="M225 755v63h276v-63h-276zM361 -12q-67 0 -127 21t-108 62.5t-76.5 110t-28.5 156.5q0 95 31 168.5t82.5 115t110.5 62.5t122 21q54 0 102.5 -12t92.5 -38.5t75.5 -66.5t50.5 -100t19 -134q0 -96 -31 -169.5t-82.5 -115t-110.5 -61.5t-122 -20zM364 16q72 0 104 69.5 t32 246.5q0 192 -32 268.5t-105 76.5q-70 0 -103 -71t-33 -246q0 -193 32 -268.5t105 -75.5z"/>
<glyph glyph-name="omacron" unicode="ō" horiz-adv-x="583" d="M155 612v62h272v-62h-272zM291 -12q-117 0 -196.5 70.5t-79.5 201.5q0 93 41.5 157.5t102 91.5t132.5 27q117 0 196.5 -70t79.5 -202q0 -71 -23 -125.5t-62.5 -86.5t-88 -48t-102.5 -16zM294 15q34 0 53 17t30 70.5t11 152.5q0 104 -13 161.5t-32.5 75t-53.5 17.5 q-48 0 -71 -49.5t-23 -186.5q0 -107 11 -164t31 -75.5t57 -18.5z"/>
<glyph glyph-name="Obreve" unicode="Ŏ" horiz-adv-x="727" d="M361 726q-115 0 -137 150l10 4q21 -33 48.5 -47t78.5 -14q48 0 76.5 14.5t50.5 46.5l10 -4q-9 -70 -43 -110t-94 -40zM361 -12q-67 0 -127 21t-108 62.5t-76.5 110t-28.5 156.5q0 95 31 168.5t82.5 115t110.5 62.5t122 21q54 0 102.5 -12t92.5 -38.5t75.5 -66.5 t50.5 -100t19 -134q0 -96 -31 -169.5t-82.5 -115t-110.5 -61.5t-122 -20zM364 16q72 0 104 69.5t32 246.5q0 192 -32 268.5t-105 76.5q-70 0 -103 -71t-33 -246q0 -193 32 -268.5t105 -75.5z"/>
<glyph glyph-name="obreve" unicode="ŏ" horiz-adv-x="583" d="M291 -12q-117 0 -196.5 70.5t-79.5 201.5q0 93 41.5 157.5t102 91.5t132.5 27q117 0 196.5 -70t79.5 -202q0 -71 -23 -125.5t-62.5 -86.5t-88 -48t-102.5 -16zM294 15q34 0 53 17t30 70.5t11 152.5q0 104 -13 161.5t-32.5 75t-53.5 17.5q-48 0 -71 -49.5t-23 -186.5 q0 -107 11 -164t31 -75.5t57 -18.5zM291 575q-104 0 -127 150l10 4q17 -32 44.5 -45.5t73.5 -13.5q84 0 116 59l10 -4q-9 -68 -41 -109t-86 -41z"/>
<glyph glyph-name="Ohungarumlaut" unicode="Ő" horiz-adv-x="727" d="M266 725l-10 7l51 120q20 47 53 47q22 0 40.5 -17.5t18.5 -40.5q0 -34 -47 -60zM436 725l-9 7l50 120q20 47 53 47q22 0 41 -17.5t19 -40.5q0 -34 -48 -60zM361 -12q-67 0 -127 21t-108 62.5t-76.5 110t-28.5 156.5q0 95 31 168.5t82.5 115t110.5 62.5t122 21 q54 0 102.5 -12t92.5 -38.5t75.5 -66.5t50.5 -100t19 -134q0 -96 -31 -169.5t-82.5 -115t-110.5 -61.5t-122 -20zM364 16q72 0 104 69.5t32 246.5q0 192 -32 268.5t-105 76.5q-70 0 -103 -71t-33 -246q0 -193 32 -268.5t105 -75.5z"/>
<glyph glyph-name="ohungarumlaut" unicode="ő" horiz-adv-x="583" d="M168 567l-9 7l56 130q21 44 54 44q22 0 41 -17.5t19 -40.5q0 -36 -46 -62zM335 567l-9 7l56 130q21 44 55 44q22 0 40.5 -17.5t18.5 -40.5q0 -36 -46 -62zM291 -12q-117 0 -196.5 70.5t-79.5 201.5q0 93 41.5 157.5t102 91.5t132.5 27q117 0 196.5 -70t79.5 -202 q0 -71 -23 -125.5t-62.5 -86.5t-88 -48t-102.5 -16zM294 15q34 0 53 17t30 70.5t11 152.5q0 104 -13 161.5t-32.5 75t-53.5 17.5q-48 0 -71 -49.5t-23 -186.5q0 -107 11 -164t31 -75.5t57 -18.5z"/>
<glyph glyph-name="OE" unicode="Œ" horiz-adv-x="982" d="M967 251l-14 -251h-580q-162 0 -257 80.5t-95 258.5q0 90 28.5 159.5t78.5 111t113.5 62.5t138.5 21h553l10 -213h-17q-34 78 -63 124q-21 35 -45.5 46.5t-75.5 11.5q-56 0 -84 -7v-281h35q52 0 67.5 6t26.5 25q18 34 31 87h16v-270h-16q-13 57 -31 91q-10 19 -26.5 25 t-68.5 6h-34v-242q0 -47 14 -59t75 -12q58 0 80.5 12t47.5 51q33 54 74 157h18zM384 30q44 0 60 21t16 69v462q0 46 -17.5 64t-64.5 18q-151 0 -151 -303q0 -179 34.5 -255t122.5 -76z"/>
<glyph glyph-name="oe" unicode="œ" horiz-adv-x="900" d="M291 -12q-117 0 -196.5 70.5t-79.5 201.5q0 137 81.5 206.5t195.5 69.5q122 0 188 -82q73 82 174 82q228 0 232 -242h-328q0 -126 42 -173.5t129 -47.5q74 0 139 35v-17q-31 -41 -87.5 -72t-128.5 -31q-125 0 -185 74q-70 -74 -176 -74zM293 15q33 0 52 17t30 70.5 t11 152.5q0 104 -12.5 161.5t-32 75t-52.5 17.5q-30 0 -49.5 -18t-31.5 -71.5t-12 -146.5q0 -108 10.5 -164.5t30 -75t56.5 -18.5zM647 510q-41 0 -64 -43.5t-25 -149.5l159 11q0 104 -15 143t-55 39z"/>
<glyph glyph-name="Racute" unicode="Ŕ" horiz-adv-x="703" d="M242 724l-4 10l124 120q26 26 55 26q27 0 45 -19.5t18 -47.5q0 -51 -56 -60zM7 0v15l30 7q21 6 27.5 10.5t10.5 18.5t4 47v497q0 46 -6.5 56.5t-35.5 19.5l-30 7v15h349q144 0 210.5 -43.5t66.5 -134.5q0 -68 -31.5 -107t-98.5 -60v-3q32 -72 78.5 -158.5t81.5 -133.5 q18 -26 43 -33l18 -5v-15h-254q-68 99 -154 311q-22 0 -37 1v-214q0 -47 6 -58.5t33 -17.5l29 -7v-15h-340zM321 340q59 0 86 34t27 124q0 88 -21.5 125.5t-75.5 37.5q-33 0 -58 -5v-312q15 -4 42 -4z"/>
<glyph glyph-name="racute" unicode="ŕ" horiz-adv-x="460" d="M144 575l-4 10l118 123q28 28 58 28q26 0 44 -20.5t18 -48.5q0 -49 -51 -59zM2 0v15l21 6q28 8 34 16.5t6 41.5v335q0 31 -5 40.5t-28 25.5l-31 21v9l226 25l8 -5v-78h2q78 83 147 83q36 0 56.5 -20t20.5 -58t-21 -60t-55 -22q-51 0 -72 49q-6 13 -10.5 17t-13.5 4 q-25 0 -51 -21v-345q0 -35 6 -43.5t34 -14.5l27 -5v-16h-301z"/>
<glyph glyph-name="Rcommaaccent" unicode="Ŗ" horiz-adv-x="703" d="M254 -244l-2 10q95 27 103 92q-13 -13 -38 -13q-26 0 -41 15t-15 39q0 25 20 43t54 18q36 0 59 -22t23 -57q0 -53 -43 -86t-120 -39zM7 0v15l30 7q21 6 27.5 10.5t10.5 18.5t4 47v497q0 46 -6.5 56.5t-35.5 19.5l-30 7v15h349q144 0 210.5 -43.5t66.5 -134.5 q0 -68 -31.5 -107t-98.5 -60v-3q32 -72 78.5 -158.5t81.5 -133.5q18 -26 43 -33l18 -5v-15h-254q-68 99 -154 311q-22 0 -37 1v-214q0 -47 6 -58.5t33 -17.5l29 -7v-15h-340zM321 340q59 0 86 34t27 124q0 88 -21.5 125.5t-75.5 37.5q-33 0 -58 -5v-312q15 -4 42 -4z"/>
<glyph glyph-name="rcommaaccent" unicode="ŗ" horiz-adv-x="460" d="M61 -244l-2 10q95 27 103 92q-13 -13 -38 -13q-26 0 -41 15t-15 39q0 25 20 43t54 18q36 0 59 -22t23 -57q0 -53 -43 -86t-120 -39zM2 0v15l21 6q28 8 34 16.5t6 41.5v335q0 31 -5 40.5t-28 25.5l-31 21v9l226 25l8 -5v-78h2q78 83 147 83q36 0 56.5 -20t20.5 -58 t-21 -60t-55 -22q-51 0 -72 49q-6 13 -10.5 17t-13.5 4q-25 0 -51 -21v-345q0 -35 6 -43.5t34 -14.5l27 -5v-16h-301z"/>
<glyph glyph-name="Rcaron" unicode="Ř" horiz-adv-x="703" d="M172 872l5 9l154 -46l154 46l6 -9l-132 -142h-56zM7 0v15l30 7q21 6 27.5 10.5t10.5 18.5t4 47v497q0 46 -6.5 56.5t-35.5 19.5l-30 7v15h349q144 0 210.5 -43.5t66.5 -134.5q0 -68 -31.5 -107t-98.5 -60v-3q32 -72 78.5 -158.5t81.5 -133.5q18 -26 43 -33l18 -5v-15 h-254q-68 99 -154 311q-22 0 -37 1v-214q0 -47 6 -58.5t33 -17.5l29 -7v-15h-340zM321 340q59 0 86 34t27 124q0 88 -21.5 125.5t-75.5 37.5q-33 0 -58 -5v-312q15 -4 42 -4z"/>
<glyph glyph-name="rcaron" unicode="ř" horiz-adv-x="460" d="M264 579h-52l-118 154l5 9l139 -58l140 58l5 -9zM2 0v15l21 6q28 8 34 16.5t6 41.5v335q0 31 -5 40.5t-28 25.5l-31 21v9l226 25l8 -5v-78h2q78 83 147 83q36 0 56.5 -20t20.5 -58t-21 -60t-55 -22q-51 0 -72 49q-6 13 -10.5 17t-13.5 4q-25 0 -51 -21v-345 q0 -35 6 -43.5t34 -14.5l27 -5v-16h-301z"/>
<glyph glyph-name="Sacute" unicode="Ś" horiz-adv-x="513" d="M233 -12q-137 0 -206 32l-12 204h18q45 -92 81 -140q28 -36 57 -52t72 -16q51 0 79 28.5t28 79.5t-31 82t-112 61q-102 36 -145.5 86t-43.5 132q0 94 71 157t184 63q109 0 175 -30l10 -183h-19q-40 90 -77 132q-26 30 -48.5 41.5t-55.5 11.5q-49 0 -76.5 -25.5 t-27.5 -72.5q0 -43 29 -71.5t106 -58.5q118 -45 164.5 -93t46.5 -128q0 -99 -72 -169.5t-195 -70.5zM164 724l-4 10l124 120q26 26 55 26q27 0 45 -19.5t18 -47.5q0 -51 -56 -60z"/>
<glyph glyph-name="sacute" unicode="ś" horiz-adv-x="430" d="M112 575l-4 10l118 123q28 28 58 28q26 0 44 -20.5t18 -48.5q0 -49 -51 -59zM188 -12q-88 0 -163 21l-5 166h17q34 -64 69 -109q21 -28 42 -39t55 -11q37 0 59 19.5t22 54.5q0 34 -23.5 52.5t-100.5 49.5q-72 27 -106.5 65.5t-34.5 100.5q0 76 56.5 127t159.5 51 q87 0 139 -21l6 -141h-15q-45 70 -62 89q-23 25 -40.5 35t-47.5 10q-35 0 -56 -18t-21 -48q0 -32 22 -50t88 -43q91 -35 128.5 -74.5t37.5 -101.5q0 -83 -59 -134t-167 -51z"/>
<glyph glyph-name="Scircumflex" unicode="Ŝ" horiz-adv-x="513" d="M103 723l-5 9l131 142h56l132 -142l-6 -9l-154 46zM233 -12q-137 0 -206 32l-12 204h18q45 -92 81 -140q28 -36 57 -52t72 -16q51 0 79 28.5t28 79.5t-31 82t-112 61q-102 36 -145.5 86t-43.5 132q0 94 71 157t184 63q109 0 175 -30l10 -183h-19q-40 90 -77 132 q-26 30 -48.5 41.5t-55.5 11.5q-49 0 -76.5 -25.5t-27.5 -72.5q0 -43 29 -71.5t106 -58.5q118 -45 164.5 -93t46.5 -128q0 -99 -72 -169.5t-195 -70.5z"/>
<glyph glyph-name="scircumflex" unicode="ŝ" horiz-adv-x="430" d="M189 734h52l119 -154l-5 -8l-140 57l-139 -57l-5 8zM188 -12q-88 0 -163 21l-5 166h17q34 -64 69 -109q21 -28 42 -39t55 -11q37 0 59 19.5t22 54.5q0 34 -23.5 52.5t-100.5 49.5q-72 27 -106.5 65.5t-34.5 100.5q0 76 56.5 127t159.5 51q87 0 139 -21l6 -141h-15 q-45 70 -62 89q-23 25 -40.5 35t-47.5 10q-35 0 -56 -18t-21 -48q0 -32 22 -50t88 -43q91 -35 128.5 -74.5t37.5 -101.5q0 -83 -59 -134t-167 -51z"/>
<glyph glyph-name="Scedilla" unicode="Ş" horiz-adv-x="513" d="M233 -12q-137 0 -206 32l-12 204h18q45 -92 81 -140q28 -36 57 -52t72 -16q51 0 79 28.5t28 79.5t-31 82t-112 61q-102 36 -145.5 86t-43.5 132q0 94 71 157t184 63q109 0 175 -30l10 -183h-19q-40 90 -77 132q-26 30 -48.5 41.5t-55.5 11.5q-49 0 -76.5 -25.5 t-27.5 -72.5q0 -43 29 -71.5t106 -58.5q118 -45 164.5 -93t46.5 -128q0 -99 -72 -169.5t-195 -70.5zM147 -201v13q84 22 84 60q0 24 -40 27l-4 4l47 97h34l-29 -42q84 -8 84 -64q0 -39 -51.5 -63.5t-124.5 -31.5z"/>
<glyph glyph-name="scedilla" unicode="ş" horiz-adv-x="430" d="M188 -12q-88 0 -163 21l-5 166h17q34 -64 69 -109q21 -28 42 -39t55 -11q37 0 59 19.5t22 54.5q0 34 -23.5 52.5t-100.5 49.5q-72 27 -106.5 65.5t-34.5 100.5q0 76 56.5 127t159.5 51q87 0 139 -21l6 -141h-15q-45 70 -62 89q-23 25 -40.5 35t-47.5 10q-35 0 -56 -18 t-21 -48q0 -32 22 -50t88 -43q91 -35 128.5 -74.5t37.5 -101.5q0 -83 -59 -134t-167 -51zM81 -201v13q84 22 84 60q0 24 -40 27l-4 4l47 97h34l-29 -42q84 -8 84 -64q0 -39 -51.5 -63.5t-124.5 -31.5z"/>
<glyph glyph-name="Scaron" unicode="Š" horiz-adv-x="513" d="M100 872l5 9l154 -46l154 46l6 -9l-132 -142h-56zM233 -12q-137 0 -206 32l-12 204h18q45 -92 81 -140q28 -36 57 -52t72 -16q51 0 79 28.5t28 79.5t-31 82t-112 61q-102 36 -145.5 86t-43.5 132q0 94 71 157t184 63q109 0 175 -30l10 -183h-19q-40 90 -77 132 q-26 30 -48.5 41.5t-55.5 11.5q-49 0 -76.5 -25.5t-27.5 -72.5q0 -43 29 -71.5t106 -58.5q118 -45 164.5 -93t46.5 -128q0 -99 -72 -169.5t-195 -70.5z"/>
<glyph glyph-name="scaron" unicode="š" horiz-adv-x="430" d="M244 579h-52l-118 154l5 9l139 -58l140 58l5 -9zM188 -12q-88 0 -163 21l-5 166h17q34 -64 69 -109q21 -28 42 -39t55 -11q37 0 59 19.5t22 54.5q0 34 -23.5 52.5t-100.5 49.5q-72 27 -106.5 65.5t-34.5 100.5q0 76 56.5 127t159.5 51q87 0 139 -21l6 -141h-15 q-45 70 -62 89q-23 25 -40.5 35t-47.5 10q-35 0 -56 -18t-21 -48q0 -32 22 -50t88 -43q91 -35 128.5 -74.5t37.5 -101.5q0 -83 -59 -134t-167 -51z"/>
<glyph glyph-name="Tcommaaccent" unicode="Ţ" horiz-adv-x="629" d="M225 -244l-2 10q95 27 103 92q-13 -13 -38 -13q-26 0 -41 15t-15 39q0 25 20 43t54 18q36 0 59 -22t23 -57q0 -53 -43 -86t-120 -39zM438 663h-24v-565q0 -46 7.5 -57t41.5 -19l32 -7v-15h-361v15l32 7q34 9 42 19.5t8 56.5v565h-25q-34 0 -51.5 -12t-34.5 -41 q-29 -46 -79 -164h-17l8 247h595l9 -247h-18q-50 121 -78 164q-19 32 -34.5 42.5t-52.5 10.5z"/>
<glyph glyph-name="tcommaaccent" unicode="ţ" horiz-adv-x="360" d="M109 -244l-2 10q95 27 103 92q-13 -13 -38 -13q-26 0 -41 15t-15 39q0 25 20 43t54 18q36 0 59 -22t23 -57q0 -53 -43 -86t-120 -39zM199 -12q-76 0 -111.5 34.5t-35.5 111.5v339h-55v11q61 21 111.5 69t75.5 104h41v-135h125l-7 -49h-118v-338q0 -43 13.5 -57.5 t52.5 -14.5q31 0 67 9v-15q-62 -69 -159 -69z"/>
<glyph glyph-name="Tcaron" unicode="Ť" horiz-adv-x="635" d="M155 872l5 9l154 -46l154 46l6 -9l-132 -142h-56zM438 663h-24v-565q0 -46 7.5 -57t41.5 -19l32 -7v-15h-361v15l32 7q34 9 42 19.5t8 56.5v565h-25q-34 0 -51.5 -12t-34.5 -41q-29 -46 -79 -164h-17l8 247h595l9 -247h-18q-50 121 -78 164q-19 32 -34.5 42.5t-52.5 10.5 z"/>
<glyph glyph-name="tcaron" unicode="ť" horiz-adv-x="360" d="M274 569l-10 4l4 139q0 49 46 49q23 0 40 -13.5t19 -32.5q0 -24 -16 -41zM199 -12q-76 0 -111.5 34.5t-35.5 111.5v339h-55v11q61 21 111.5 69t75.5 104h41v-135h125l-7 -49h-118v-338q0 -43 13.5 -57.5t52.5 -14.5q31 0 67 9v-15q-62 -69 -159 -69z"/>
<glyph glyph-name="Tbar" unicode="Ŧ" horiz-adv-x="635" d="M77 357v34h138v272h-24q-34 0 -51.5 -12t-34.5 -41q-26 -39 -79 -164h-18l9 247h595l8 -247h-17q-47 115 -78 164q-19 32 -34.5 42.5t-52.5 10.5h-24v-272h142v-34h-142v-259q0 -46 7.5 -57t41.5 -19l32 -7v-15h-361v15l32 7q34 9 41.5 19.5t7.5 56.5v259h-138z"/>
<glyph glyph-name="tbar" unicode="ŧ" horiz-adv-x="360" d="M-3 328v33h351v-33h-351zM199 -12q-76 0 -111.5 34.5t-35.5 111.5v339h-55v11q61 21 111.5 69t75.5 104h41v-135h125l-7 -49h-118v-338q0 -43 13.5 -57.5t52.5 -14.5q31 0 67 9v-15q-62 -69 -159 -69z"/>
<glyph glyph-name="Utilde" unicode="Ũ" horiz-adv-x="688" d="M371 -12q-144 0 -219 53t-75 179v375q0 33 -4 47t-11 18.5t-29 10.5l-29 7v15h344v-15l-30 -7q-18 -5 -23.5 -7.5t-12 -10.5t-7.5 -20.5t-1 -37.5v-392q0 -82 37.5 -120.5t118.5 -38.5q77 0 111 43t34 126v357q0 58 -8 74.5t-41 24.5l-36 9v15h194v-15l-31 -8 q-25 -6 -33 -24t-8 -71v-370q0 -98 -59 -157.5t-182 -59.5zM483 743q-20 0 -82.5 10t-84.5 10q-20 0 -32 -9t-27 -33l-13 7q24 71 45.5 103t57.5 32q20 0 82 -10.5t84 -10.5q20 0 32.5 9.5t27.5 33.5l13 -7q-23 -72 -44 -103.5t-59 -31.5z"/>
<glyph glyph-name="utilde" unicode="ũ" horiz-adv-x="618" d="M383 91v320q0 33 -5 43t-28 26l-31 21v9l229 25l7 -5v-420q0 -38 6 -49.5t30 -19.5l25 -9v-12l-223 -32l-7 6v71h-3q-102 -77 -192 -77q-60 0 -94.5 34.5t-34.5 99.5v290q0 32 -5 42t-28 26l-30 21v9l228 25l8 -5v-369q0 -82 64 -82q34 0 84 12zM164 571l-12 7 q22 70 44.5 102.5t56.5 32.5q20 0 72.5 -9.5t73.5 -9.5q20 0 32 9.5t27 33.5l13 -7q-23 -72 -44 -103.5t-58 -31.5q-20 0 -72.5 9t-73.5 9q-20 0 -32 -9t-27 -33z"/>
<glyph glyph-name="Umacron" unicode="Ū" horiz-adv-x="688" d="M371 -12q-144 0 -219 53t-75 179v375q0 33 -4 47t-11 18.5t-29 10.5l-29 7v15h344v-15l-30 -7q-18 -5 -23.5 -7.5t-12 -10.5t-7.5 -20.5t-1 -37.5v-392q0 -82 37.5 -120.5t118.5 -38.5q77 0 111 43t34 126v357q0 58 -8 74.5t-41 24.5l-36 9v15h194v-15l-31 -8 q-25 -6 -33 -24t-8 -71v-370q0 -98 -59 -157.5t-182 -59.5zM254 755v63h276v-63h-276z"/>
<glyph glyph-name="umacron" unicode="ū" horiz-adv-x="618" d="M383 91v320q0 33 -5 43t-28 26l-31 21v9l229 25l7 -5v-420q0 -38 6 -49.5t30 -19.5l25 -9v-12l-223 -32l-7 6v71h-3q-102 -77 -192 -77q-60 0 -94.5 34.5t-34.5 99.5v290q0 32 -5 42t-28 26l-30 21v9l228 25l8 -5v-369q0 -82 64 -82q34 0 84 12zM170 612v62h272v-62h-272 z"/>
<glyph glyph-name="Ubreve" unicode="Ŭ" horiz-adv-x="688" d="M371 -12q-144 0 -219 53t-75 179v375q0 33 -4 47t-11 18.5t-29 10.5l-29 7v15h344v-15l-30 -7q-18 -5 -23.5 -7.5t-12 -10.5t-7.5 -20.5t-1 -37.5v-392q0 -82 37.5 -120.5t118.5 -38.5q77 0 111 43t34 126v357q0 58 -8 74.5t-41 24.5l-36 9v15h194v-15l-31 -8 q-25 -6 -33 -24t-8 -71v-370q0 -98 -59 -157.5t-182 -59.5zM398 726q-115 0 -137 150l10 4q21 -33 48.5 -47t78.5 -14q48 0 76.5 14.5t50.5 46.5l10 -4q-9 -70 -43 -110t-94 -40z"/>
<glyph glyph-name="ubreve" unicode="ŭ" horiz-adv-x="618" d="M383 91v320q0 33 -5 43t-28 26l-31 21v9l229 25l7 -5v-420q0 -38 6 -49.5t30 -19.5l25 -9v-12l-223 -32l-7 6v71h-3q-102 -77 -192 -77q-60 0 -94.5 34.5t-34.5 99.5v290q0 32 -5 42t-28 26l-30 21v9l228 25l8 -5v-369q0 -82 64 -82q34 0 84 12zM311 575q-104 0 -127 150 l10 4q17 -32 44.5 -45.5t73.5 -13.5q84 0 116 59l10 -4q-9 -68 -41 -109t-86 -41z"/>
<glyph glyph-name="Uring" unicode="Ů" horiz-adv-x="688" d="M371 -12q-144 0 -219 53t-75 179v375q0 33 -4 47t-11 18.5t-29 10.5l-29 7v15h344v-15l-30 -7q-18 -5 -23.5 -7.5t-12 -10.5t-7.5 -20.5t-1 -37.5v-392q0 -82 37.5 -120.5t118.5 -38.5q77 0 111 43t34 126v357q0 58 -8 74.5t-41 24.5l-36 9v15h194v-15l-31 -8 q-25 -6 -33 -24t-8 -71v-370q0 -98 -59 -157.5t-182 -59.5zM321 804q0 38 27 63.5t65 25.5t65 -25.5t27 -63.5t-27 -63t-65 -25t-65 25t-27 63zM356 804q0 -27 15.5 -44t41.5 -17t41.5 17t15.5 44t-15.5 44.5t-41.5 17.5t-41.5 -17.5t-15.5 -44.5z"/>
<glyph glyph-name="uring" unicode="ů" horiz-adv-x="618" d="M217 659q0 38 27 63t65 25t65 -25t27 -63t-27 -63t-65 -25t-65 25t-27 63zM252 659q0 -27 15.5 -44.5t41.5 -17.5t41.5 17.5t15.5 44.5t-15.5 44.5t-41.5 17.5t-41.5 -17.5t-15.5 -44.5zM383 91v320q0 33 -5 43t-28 26l-31 21v9l229 25l7 -5v-420q0 -38 6 -49.5t30 -19.5 l25 -9v-12l-223 -32l-7 6v71h-3q-102 -77 -192 -77q-60 0 -94.5 34.5t-34.5 99.5v290q0 32 -5 42t-28 26l-30 21v9l228 25l8 -5v-369q0 -82 64 -82q34 0 84 12z"/>
<glyph glyph-name="Uhungarumlaut" unicode="Ű" horiz-adv-x="688" d="M276 725l-10 7l51 120q20 47 53 47q22 0 40.5 -17.5t18.5 -40.5q0 -34 -47 -60zM446 725l-9 7l50 120q20 47 53 47q22 0 41 -17.5t19 -40.5q0 -34 -48 -60zM371 -12q-144 0 -219 53t-75 179v375q0 33 -4 47t-11 18.5t-29 10.5l-29 7v15h344v-15l-30 -7q-18 -5 -23.5 -7.5 t-12 -10.5t-7.5 -20.5t-1 -37.5v-392q0 -82 37.5 -120.5t118.5 -38.5q77 0 111 43t34 126v357q0 58 -8 74.5t-41 24.5l-36 9v15h194v-15l-31 -8q-25 -6 -33 -24t-8 -71v-370q0 -98 -59 -157.5t-182 -59.5z"/>
<glyph glyph-name="uhungarumlaut" unicode="ű" horiz-adv-x="618" d="M383 91v320q0 33 -5 43t-28 26l-31 21v9l229 25l7 -5v-420q0 -38 6 -49.5t30 -19.5l25 -9v-12l-223 -32l-7 6v71h-3q-102 -77 -192 -77q-60 0 -94.5 34.5t-34.5 99.5v290q0 32 -5 42t-28 26l-30 21v9l228 25l8 -5v-369q0 -82 64 -82q34 0 84 12zM190 567l-9 7l56 130 q21 44 54 44q22 0 41 -17.5t19 -40.5q0 -36 -46 -62zM357 567l-9 7l56 130q21 44 55 44q22 0 40.5 -17.5t18.5 -40.5q0 -36 -46 -62z"/>
<glyph glyph-name="Uogonek" unicode="Ų" horiz-adv-x="688" d="M371 -12q-144 0 -219 53t-75 179v375q0 33 -4 47t-11 18.5t-29 10.5l-29 7v15h344v-15l-30 -7q-18 -5 -23.5 -7.5t-12 -10.5t-7.5 -20.5t-1 -37.5v-392q0 -82 37.5 -120.5t118.5 -38.5q77 0 111 43t34 126v357q0 58 -8 74.5t-41 24.5l-36 9v15h194v-15l-31 -8 q-25 -6 -33 -24t-8 -71v-370q0 -68 -23 -111.5t-81 -86.5q-48 -34 -66.5 -60.5t-18.5 -60.5q0 -44 44 -44q20 0 31 4v-15q-35 -35 -92 -35q-46 0 -72 20.5t-26 55.5q0 39 35 69t113 56q-42 -9 -85 -9z"/>
<glyph glyph-name="uogonek" unicode="ų" horiz-adv-x="618" d="M387 -18v83h-3q-102 -77 -194 -77q-60 0 -94.5 34.5t-34.5 99.5v289q0 33 -4.5 43.5t-28.5 25.5l-30 21v9l228 25l8 -5v-369q0 -82 64 -82q34 0 84 12v320q0 32 -5 42.5t-28 26.5l-31 21v9l229 25l7 -5v-420q0 -38 6 -49.5t30 -19.5l25 -9v-12l-58 -8q-89 -14 -126 -43 t-37 -78t52 -49q15 0 26 4v-14q-32 -36 -87 -36q-51 0 -77 20t-26 56q0 35 25 60.5t80 49.5z"/>
<glyph glyph-name="Wcircumflex" unicode="Ŵ" horiz-adv-x="1011" d="M393 723l-5 9l131 142h56l132 -142l-6 -9l-154 46zM785 204l106 351q15 47 15 73q0 36 -40 43l-31 7v15h190v-15l-18 -6q-26 -8 -40 -30t-35 -84l-183 -558h-95l-135 420h-3l-141 -420h-100l-206 583q-15 41 -20.5 53.5t-15 23t-25.5 12.5l-24 6v15h343v-15l-24 -6 q-19 -6 -28 -14.5t-9 -24.5q0 -20 20 -78l120 -351h3l91 271l-41 126q-12 36 -22.5 50.5t-32.5 20.5l-20 6v15h338v-15l-33 -8q-34 -7 -34 -42q0 -24 17 -73l110 -351h3z"/>
<glyph glyph-name="wcircumflex" unicode="ŵ" horiz-adv-x="828" d="M398 734h52l119 -154l-5 -8l-140 57l-139 -57l-5 8zM762 410l-150 -410h-76l-114 319h-2l-121 -319h-76l-162 421q-17 45 -28.5 60.5t-27.5 19.5l-18 6v15h292v-15l-14 -4q-30 -7 -30 -32q0 -22 16 -67l77 -236h3l73 198l-19 55q-19 49 -27.5 62t-26.5 19l-15 5v15h295 v-15l-22 -6q-21 -6 -29 -15t-8 -26q0 -20 11 -56l76 -236h4l77 235q13 36 13 61q0 26 -33 36l-27 7v15h170v-15l-14 -5q-23 -8 -36.5 -25.5t-30.5 -66.5z"/>
<glyph glyph-name="Ycircumflex" unicode="Ŷ" horiz-adv-x="637" d="M154 0v15l32 7q34 9 41.5 19.5t7.5 56.5v198l-165 295q-36 62 -46 71q-7 6 -20 10l-18 6v15h366v-15l-32 -7q-44 -11 -44 -42q0 -24 17 -55l120 -231h3l97 220q17 37 17 64q0 32 -42 44l-27 7v15h186v-15l-19 -7q-19 -6 -31.5 -23.5t-36.5 -70.5l-127 -276v-203 q0 -46 7.5 -56.5t41.5 -19.5l33 -7v-15h-361zM222 723l-5 9l131 142h56l132 -142l-6 -9l-154 46z"/>
<glyph glyph-name="ycircumflex" unicode="ŷ" horiz-adv-x="536" d="M345 180l80 216q17 48 17 65q0 30 -34 39l-26 7v15h167v-15l-18 -7q-17 -6 -28 -23.5t-32 -69.5l-187 -453q-38 -86 -74.5 -122.5t-102.5 -36.5q-41 0 -69.5 21t-28.5 56q0 29 18.5 46t52.5 17q58 0 67 -60q4 -23 10 -26q3 -1 8 -1q18 0 41.5 27t44.5 82l9 22l-198 440 q-21 46 -33.5 62t-26.5 20l-16 6v15h313v-15l-26 -8q-33 -12 -33 -40q0 -13 15 -56l86 -223h4zM263 734h52l119 -154l-5 -8l-140 57l-139 -57l-5 8z"/>
<glyph glyph-name="Ydieresis" unicode="Ÿ" horiz-adv-x="637" d="M154 0v15l32 7q34 9 41.5 19.5t7.5 56.5v198l-165 295q-36 62 -46 71q-7 6 -20 10l-18 6v15h366v-15l-32 -7q-44 -11 -44 -42q0 -24 17 -55l120 -231h3l97 220q17 37 17 64q0 32 -42 44l-27 7v15h186v-15l-19 -7q-19 -6 -31.5 -23.5t-36.5 -70.5l-127 -276v-203 q0 -46 7.5 -56.5t41.5 -19.5l33 -7v-15h-361zM272 722q-34 0 -57 21t-23 57t23 57t57 21q36 0 59 -21t23 -57t-23 -57t-59 -21zM481 722q-34 0 -57 21t-23 57t23 57t57 21q36 0 59 -21t23 -57t-23 -57t-59 -21z"/>
<glyph glyph-name="Zacute" unicode="Ź" horiz-adv-x="617" d="M240 724l-4 10l124 120q26 26 55 26q27 0 45 -19.5t18 -47.5q0 -51 -56 -60zM18 0v32l348 628v4h-42q-88 0 -117.5 -9.5t-50.5 -41.5q-38 -56 -82 -161h-18l14 241h517v-32l-352 -628v-4h46q108 0 140.5 10.5t60.5 52.5q29 40 88 164h19l-19 -256h-552z"/>
<glyph glyph-name="zacute" unicode="ź" horiz-adv-x="500" d="M172 575l-4 10l118 123q28 28 58 28q26 0 44 -20.5t18 -48.5q0 -49 -51 -59zM14 0v36l279 450v4h-53q-53 0 -72.5 -6t-40.5 -31q-13 -14 -73 -115h-14l11 184h433v-34l-279 -452v-4h57q65 0 88 8t45 32q25 27 73 118h16l-18 -190h-452z"/>
<glyph glyph-name="Zdotaccent" unicode="Ż" horiz-adv-x="617" d="M18 0v32l348 628v4h-42q-88 0 -117.5 -9.5t-50.5 -41.5q-38 -56 -82 -161h-18l14 241h517v-32l-352 -628v-4h46q108 0 140.5 10.5t60.5 52.5q29 40 88 164h19l-19 -256h-552zM334 725q-38 0 -63 22.5t-25 59.5q0 36 25 58.5t63 22.5t63 -22.5t25 -58.5q0 -37 -25 -59.5 t-63 -22.5z"/>
<glyph glyph-name="zdotaccent" unicode="ż" horiz-adv-x="500" d="M14 0v36l279 450v4h-53q-53 0 -72.5 -6t-40.5 -31q-13 -14 -73 -115h-14l11 184h433v-34l-279 -452v-4h57q65 0 88 8t45 32q25 27 73 118h16l-18 -190h-452zM178 650q0 36 25.5 59t62.5 23q39 0 63.5 -23t24.5 -59q0 -38 -24.5 -60t-63.5 -22q-38 0 -63 22.5t-25 59.5z "/>
<glyph glyph-name="Zcaron" unicode="Ž" horiz-adv-x="617" d="M180 872l5 9l154 -46l154 46l6 -9l-132 -142h-56zM18 0v32l348 628v4h-42q-88 0 -117.5 -9.5t-50.5 -41.5q-38 -56 -82 -161h-18l14 241h517v-32l-352 -628v-4h46q108 0 140.5 10.5t60.5 52.5q29 40 88 164h19l-19 -256h-552z"/>
<glyph glyph-name="zcaron" unicode="ž" horiz-adv-x="500" d="M294 579h-52l-118 154l5 9l139 -58l140 58l5 -9zM14 0v36l279 450v4h-53q-53 0 -72.5 -6t-40.5 -31q-13 -14 -73 -115h-14l11 184h433v-34l-279 -452v-4h57q65 0 88 8t45 32q25 27 73 118h16l-18 -190h-452z"/>
<glyph glyph-name="florin" unicode="ƒ" horiz-adv-x="503" d="M48 372v30h78l7 55q29 248 255 248q66 0 104 -26t38 -69q0 -26 -19 -40.5t-47 -14.5q-36 0 -52 17t-20 66q-2 23 -7 31.5t-16 8.5q-22 0 -32.5 -22.5t-18.5 -90.5l-20 -163h119v-30h-122l-37 -312q-15 -128 -77.5 -190t-161.5 -62q-63 0 -94.5 23t-31.5 58q0 56 62 56 q32 0 46 -15.5t18 -62.5q3 -22 7 -27.5t12 -5.5q24 0 33 88l52 450h-75z"/>
<glyph glyph-name="Aringacute" unicode="Ǻ" horiz-adv-x="679" d="M-7 0v15l14 5q26 8 38 26t40 92l202 555h102l203 -557q26 -70 37.5 -90t32.5 -26l18 -5v-15h-359v15l27 7q38 9 38 44q0 36 -19 84l-25 78h-186l-25 -73q-20 -58 -20 -86q0 -19 10 -29t39 -18l25 -7v-15h-192zM252 509l-85 -249h165l-77 249h-3zM226 905l-4 10l124 120 q26 26 55 26q27 0 45 -19.5t18 -47.5q0 -51 -56 -60zM245 807q0 38 27 63.5t65 25.5t65 -25.5t27 -63.5t-27 -63t-65 -25t-65 25t-27 63zM280 807q0 -27 15.5 -44t41.5 -17t41.5 17t15.5 44t-15.5 44.5t-41.5 17.5t-41.5 -17.5t-15.5 -44.5z"/>
<glyph glyph-name="aringacute" unicode="ǻ" horiz-adv-x="528" d="M157 -12q-67 0 -106 33t-39 91q0 34 12.5 59t38 41t49.5 25t61 18l118 32v99q0 69 -11.5 95.5t-48.5 26.5q-24 0 -33.5 -8t-11.5 -34q-4 -57 -21 -77.5t-58 -20.5q-73 0 -73 60q0 52 58.5 80t170.5 28q201 0 201 -140v-284q0 -30 4 -43t17 -21q21 -10 47 -10v-13 q-47 -37 -122 -37q-89 0 -109 65h-4q-53 -65 -140 -65zM240 55q38 0 51 24v170l-32 -4q-42 -4 -60 -25.5t-18 -73.5q0 -91 59 -91zM160 656q0 38 27 63t65 25t65 -25t27 -63t-27 -63t-65 -25t-65 25t-27 63zM195 656q0 -27 15.5 -44.5t41.5 -17.5t41.5 17.5t15.5 44.5 t-15.5 44.5t-41.5 17.5t-41.5 -17.5t-15.5 -44.5zM136 757l-4 10l124 120q26 26 55 26q27 0 45 -19.5t18 -47.5q0 -51 -56 -60z"/>
<glyph glyph-name="AEacute" unicode="Ǽ" horiz-adv-x="910" d="M526 724l-4 10l124 120q26 26 55 26q27 0 45 -19.5t18 -47.5q0 -51 -56 -60zM896 251l-14 -251h-559v15l29 7q22 6 28.5 10.5t10.5 18.5t4 47v127h-195l-44 -86q-29 -56 -29 -82q0 -12 10 -19t36 -16l23 -7v-15h-206v15l23 7q29 8 45 26.5t52 81.5l275 513q-10 16 -49 27 l-29 8v15h555l10 -213h-17q-34 78 -63 124q-21 35 -45.5 46.5t-75.5 11.5q-53 0 -81 -7v-281h32q52 0 67.5 6t26.5 25q18 34 31 87h16v-270h-16q-13 57 -31 91q-10 19 -26.5 25t-68.5 6h-31v-242q0 -46 14 -58.5t72 -12.5t80.5 12t47.5 51q33 54 74 157h18zM393 599 l-177 -343h179v342v1h-2z"/>
<glyph glyph-name="aeacute" unicode="ǽ" horiz-adv-x="800" d="M323 575l-4 10l118 123q28 28 58 28q26 0 44 -20.5t18 -48.5q0 -49 -51 -59zM343 75h-1q-36 -45 -79.5 -66t-105.5 -21q-67 0 -106 33.5t-39 93.5q0 65 42.5 96.5t118.5 50.5l118 31v93q0 69 -11.5 95.5t-48.5 26.5q-24 0 -33.5 -8t-11.5 -34q-4 -57 -21 -77.5t-58 -20.5 q-73 0 -73 60q0 51 56 79.5t157 28.5q113 0 154 -63q65 63 154 63q226 0 233 -245h-326q2 -124 42 -171t125 -47q75 0 140 35v-17q-32 -42 -87.5 -72.5t-129.5 -30.5q-142 0 -209 87zM547 510q-40 0 -61.5 -43.5t-23.5 -151.5l156 10q0 106 -15 145.5t-56 39.5zM247 55 q47 0 83 39q-37 60 -39 161l-28 -3q-45 -5 -63.5 -27.5t-18.5 -75.5q0 -94 66 -94z"/>
<glyph glyph-name="Oslashacute" unicode="Ǿ" horiz-adv-x="727" d="M361 -12q-111 0 -195 53l-67 -94h-36l79 111q-121 96 -121 280q0 95 31 168.5t82.5 115t110.5 62.5t122 21q112 0 197 -52l54 77h37l-67 -94q119 -93 119 -282q0 -96 -31 -169.5t-82.5 -115t-110.5 -61.5t-122 -20zM223 360q0 -107 10 -174l254 358q-17 72 -47 102.5 t-77 30.5q-70 0 -105 -71.5t-35 -245.5zM364 16q72 0 106 70.5t34 245.5q0 104 -10 171l-254 -357q17 -70 47 -100t77 -30zM255 724l-4 10l124 120q26 26 55 26q27 0 45 -19.5t18 -47.5q0 -51 -56 -60z"/>
<glyph glyph-name="oslashacute" unicode="ǿ" horiz-adv-x="583" d="M291 -12q-91 0 -153 38l-49 -70h-35l60 86q-99 74 -99 218q0 93 41.5 157.5t102 91.5t132.5 27q79 0 142 -33l44 63h35l-54 -78q109 -72 109 -224q0 -71 -23 -125.5t-62.5 -86.5t-88 -48t-102.5 -16zM294 15q34 0 54 17t32 71t12 152q0 82 -7 128l-185 -267 q9 -58 32 -79.5t62 -21.5zM190 273q0 -72 4 -115l184 265q-12 49 -33.5 67.5t-55.5 18.5q-32 0 -52 -18t-33.5 -71.5t-13.5 -146.5zM184 575l-4 10l118 123q28 28 58 28q26 0 44 -20.5t18 -48.5q0 -49 -51 -59z"/>
<glyph glyph-name="Scommaaccent" unicode="Ș" horiz-adv-x="513" d="M233 -12q-137 0 -206 32l-12 204h18q45 -92 81 -140q28 -36 57 -52t72 -16q51 0 79 28.5t28 79.5t-31 82t-112 61q-102 36 -145.5 86t-43.5 132q0 94 71 157t184 63q109 0 175 -30l10 -183h-19q-40 90 -77 132q-26 30 -48.5 41.5t-55.5 11.5q-49 0 -76.5 -25.5 t-27.5 -72.5q0 -43 29 -71.5t106 -58.5q118 -45 164.5 -93t46.5 -128q0 -99 -72 -169.5t-195 -70.5zM152 -244l-2 10q95 27 103 92q-13 -13 -38 -13q-26 0 -41 15t-15 39q0 25 20 43t54 18q36 0 59 -22t23 -57q0 -53 -43 -86t-120 -39z"/>
<glyph glyph-name="scommaaccent" unicode="ș" horiz-adv-x="430" d="M188 -12q-88 0 -163 21l-5 166h17q34 -64 69 -109q21 -28 42 -39t55 -11q37 0 59 19.5t22 54.5q0 34 -23.5 52.5t-100.5 49.5q-72 27 -106.5 65.5t-34.5 100.5q0 76 56.5 127t159.5 51q87 0 139 -21l6 -141h-15q-45 70 -62 89q-23 25 -40.5 35t-47.5 10q-35 0 -56 -18 t-21 -48q0 -32 22 -50t88 -43q91 -35 128.5 -74.5t37.5 -101.5q0 -83 -59 -134t-167 -51zM120 -244l-2 10q95 27 103 92q-13 -13 -38 -13q-26 0 -41 15t-15 39q0 25 20 43t54 18q36 0 59 -22t23 -57q0 -53 -43 -86t-120 -39z"/>
<glyph glyph-name="uni021A" unicode="Ț" horiz-adv-x="629" d="M225 -244l-2 10q95 27 103 92q-13 -13 -38 -13q-26 0 -41 15t-15 39q0 25 20 43t54 18q36 0 59 -22t23 -57q0 -53 -43 -86t-120 -39zM438 663h-24v-565q0 -46 7.5 -57t41.5 -19l32 -7v-15h-361v15l32 7q34 9 42 19.5t8 56.5v565h-25q-34 0 -51.5 -12t-34.5 -41 q-29 -46 -79 -164h-17l8 247h595l9 -247h-18q-50 121 -78 164q-19 32 -34.5 42.5t-52.5 10.5z"/>
<glyph glyph-name="uni021B" unicode="ț" horiz-adv-x="360" d="M109 -244l-2 10q95 27 103 92q-13 -13 -38 -13q-26 0 -41 15t-15 39q0 25 20 43t54 18q36 0 59 -22t23 -57q0 -53 -43 -86t-120 -39zM199 -12q-76 0 -111.5 34.5t-35.5 111.5v339h-55v11q61 21 111.5 69t75.5 104h41v-135h125l-7 -49h-118v-338q0 -43 13.5 -57.5 t52.5 -14.5q31 0 67 9v-15q-62 -69 -159 -69z"/>
<glyph glyph-name="uni0237" unicode="ȷ" horiz-adv-x="283" d="M234 405v-386q0 -99 -62 -160t-158 -61q-71 0 -109.5 25.5t-38.5 71.5q0 66 73 66q38 0 54.5 -21.5t22.5 -84.5q2 -19 4.5 -24t10.5 -5q31 0 31 71v517q0 31 -5.5 41t-30.5 26l-30 20v9l235 25l7 -5q-4 -53 -4 -125z"/>
<glyph glyph-name="circumflex" unicode="ˆ" d="M214 734h52l119 -154l-5 -8l-140 57l-139 -57l-5 8z"/>
<glyph glyph-name="caron" unicode="ˇ" d="M266 579h-52l-118 154l5 9l139 -58l140 58l5 -9z"/>
<glyph glyph-name="breve" unicode="˘" d="M240 575q-104 0 -127 150l10 4q17 -32 44.5 -45.5t73.5 -13.5q84 0 116 59l10 -4q-9 -68 -41 -109t-86 -41z"/>
<glyph glyph-name="dotaccent" unicode="˙" horiz-adv-x="335" d="M79 650q0 36 25.5 59t62.5 23q39 0 63.5 -23t24.5 -59q0 -38 -24.5 -60t-63.5 -22q-38 0 -63 22.5t-25 59.5z"/>
<glyph glyph-name="ring" unicode="˚" d="M148 659q0 38 27 63t65 25t65 -25t27 -63t-27 -63t-65 -25t-65 25t-27 63zM183 659q0 -27 15.5 -44.5t41.5 -17.5t41.5 17.5t15.5 44.5t-15.5 44.5t-41.5 17.5t-41.5 -17.5t-15.5 -44.5z"/>
<glyph glyph-name="ogonek" unicode="˛" horiz-adv-x="358" d="M210 0h18q-43 -52 -43 -113q0 -45 43 -45q20 0 32 4v-14q-36 -36 -89 -36q-50 0 -76 20t-26 56q0 76 141 128z"/>
<glyph glyph-name="tilde" unicode="˜" d="M93 571l-12 7q22 70 44.5 102.5t56.5 32.5q20 0 72.5 -9.5t73.5 -9.5q20 0 32 9.5t27 33.5l13 -7q-23 -72 -44 -103.5t-58 -31.5q-20 0 -72.5 9t-73.5 9q-20 0 -32 -9t-27 -33z"/>
<glyph glyph-name="hungarumlaut" unicode="˝" d="M108 567l-9 7l56 130q21 44 54 44q22 0 41 -17.5t19 -40.5q0 -36 -46 -62zM275 567l-9 7l56 130q21 44 55 44q22 0 40.5 -17.5t18.5 -40.5q0 -36 -46 -62z"/>
<glyph glyph-name="Wgrave" unicode="Ẁ" horiz-adv-x="1011" d="M648 732l-4 -9l-182 29q-56 8 -56 60q0 28 18 47.5t45 19.5q29 0 55 -26zM785 204l106 351q15 47 15 73q0 36 -40 43l-31 7v15h190v-15l-18 -6q-26 -8 -40 -30t-35 -84l-183 -558h-95l-135 420h-3l-141 -420h-100l-206 583q-15 41 -20.5 53.5t-15 23t-25.5 12.5l-24 6v15 h343v-15l-24 -6q-19 -6 -28 -14.5t-9 -24.5q0 -20 20 -78l120 -351h3l91 271l-41 126q-12 36 -22.5 50.5t-32.5 20.5l-20 6v15h338v-15l-33 -8q-34 -7 -34 -42q0 -24 17 -73l110 -351h3z"/>
<glyph glyph-name="wgrave" unicode="ẁ" horiz-adv-x="828" d="M762 410l-150 -410h-76l-114 319h-2l-121 -319h-76l-162 421q-17 45 -28.5 60.5t-27.5 19.5l-18 6v15h292v-15l-14 -4q-30 -7 -30 -32q0 -22 16 -67l77 -236h3l73 198l-19 55q-19 49 -27.5 62t-26.5 19l-15 5v15h295v-15l-22 -6q-21 -6 -29 -15t-8 -26q0 -20 11 -56 l76 -236h4l77 235q13 36 13 61q0 26 -33 36l-27 7v15h170v-15l-14 -5q-23 -8 -36.5 -25.5t-30.5 -66.5zM532 585l-4 -10l-183 33q-51 10 -51 59q0 28 18 48.5t44 20.5q30 0 58 -28z"/>
<glyph glyph-name="Wacute" unicode="Ẃ" horiz-adv-x="1011" d="M451 724l-4 10l124 120q26 26 55 26q27 0 45 -19.5t18 -47.5q0 -51 -56 -60zM785 204l106 351q15 47 15 73q0 36 -40 43l-31 7v15h190v-15l-18 -6q-26 -8 -40 -30t-35 -84l-183 -558h-95l-135 420h-3l-141 -420h-100l-206 583q-15 41 -20.5 53.5t-15 23t-25.5 12.5l-24 6 v15h343v-15l-24 -6q-19 -6 -28 -14.5t-9 -24.5q0 -20 20 -78l120 -351h3l91 271l-41 126q-12 36 -22.5 50.5t-32.5 20.5l-20 6v15h338v-15l-33 -8q-34 -7 -34 -42q0 -24 17 -73l110 -351h3z"/>
<glyph glyph-name="wacute" unicode="ẃ" horiz-adv-x="828" d="M353 575l-4 10l118 123q28 28 58 28q26 0 44 -20.5t18 -48.5q0 -49 -51 -59zM762 410l-150 -410h-76l-114 319h-2l-121 -319h-76l-162 421q-17 45 -28.5 60.5t-27.5 19.5l-18 6v15h292v-15l-14 -4q-30 -7 -30 -32q0 -22 16 -67l77 -236h3l73 198l-19 55q-19 49 -27.5 62 t-26.5 19l-15 5v15h295v-15l-22 -6q-21 -6 -29 -15t-8 -26q0 -20 11 -56l76 -236h4l77 235q13 36 13 61q0 26 -33 36l-27 7v15h170v-15l-14 -5q-23 -8 -36.5 -25.5t-30.5 -66.5z"/>
<glyph glyph-name="Wdieresis" unicode="Ẅ" horiz-adv-x="1011" d="M442 722q-34 0 -57 21t-23 57t23 57t57 21q36 0 59 -21t23 -57t-23 -57t-59 -21zM651 722q-34 0 -57 21t-23 57t23 57t57 21q36 0 59 -21t23 -57t-23 -57t-59 -21zM785 204l106 351q15 47 15 73q0 36 -40 43l-31 7v15h190v-15l-18 -6q-26 -8 -40 -30t-35 -84l-183 -558 h-95l-135 420h-3l-141 -420h-100l-206 583q-15 41 -20.5 53.5t-15 23t-25.5 12.5l-24 6v15h343v-15l-24 -6q-19 -6 -28 -14.5t-9 -24.5q0 -20 20 -78l120 -351h3l91 271l-41 126q-12 36 -22.5 50.5t-32.5 20.5l-20 6v15h338v-15l-33 -8q-34 -7 -34 -42q0 -24 17 -73 l110 -351h3z"/>
<glyph glyph-name="wdieresis" unicode="ẅ" horiz-adv-x="828" d="M249 652q0 36 23 57t57 21q36 0 59 -21t23 -57t-23 -57t-59 -21q-34 0 -57 21t-23 57zM449 652q0 36 23.5 57t57.5 21q35 0 58.5 -21t23.5 -57t-23.5 -57t-58.5 -21q-34 0 -57.5 21t-23.5 57zM762 410l-150 -410h-76l-114 319h-2l-121 -319h-76l-162 421 q-17 45 -28.5 60.5t-27.5 19.5l-18 6v15h292v-15l-14 -4q-30 -7 -30 -32q0 -22 16 -67l77 -236h3l73 198l-19 55q-19 49 -27.5 62t-26.5 19l-15 5v15h295v-15l-22 -6q-21 -6 -29 -15t-8 -26q0 -20 11 -56l76 -236h4l77 235q13 36 13 61q0 26 -33 36l-27 7v15h170v-15l-14 -5 q-23 -8 -36.5 -25.5t-30.5 -66.5z"/>
<glyph glyph-name="Ygrave" unicode="Ỳ" horiz-adv-x="637" d="M154 0v15l32 7q34 9 41.5 19.5t7.5 56.5v198l-165 295q-36 62 -46 71q-7 6 -20 10l-18 6v15h366v-15l-32 -7q-44 -11 -44 -42q0 -24 17 -55l120 -231h3l97 220q17 37 17 64q0 32 -42 44l-27 7v15h186v-15l-19 -7q-19 -6 -31.5 -23.5t-36.5 -70.5l-127 -276v-203 q0 -46 7.5 -56.5t41.5 -19.5l33 -7v-15h-361zM474 732l-4 -9l-182 29q-56 8 -56 60q0 28 18 47.5t45 19.5q29 0 55 -26z"/>
<glyph glyph-name="ygrave" unicode="ỳ" horiz-adv-x="536" d="M345 180l80 216q17 48 17 65q0 30 -34 39l-26 7v15h167v-15l-18 -7q-17 -6 -28 -23.5t-32 -69.5l-187 -453q-38 -86 -74.5 -122.5t-102.5 -36.5q-41 0 -69.5 21t-28.5 56q0 29 18.5 46t52.5 17q58 0 67 -60q4 -23 10 -26q3 -1 8 -1q18 0 41.5 27t44.5 82l9 22l-198 440 q-21 46 -33.5 62t-26.5 20l-16 6v15h313v-15l-26 -8q-33 -12 -33 -40q0 -13 15 -56l86 -223h4zM385 585l-4 -10l-183 33q-51 10 -51 59q0 28 18 48.5t44 20.5q30 0 58 -28z"/>
<glyph glyph-name="uni2009" unicode=" " horiz-adv-x="68"/>
<glyph glyph-name="endash" unicode="–" horiz-adv-x="400" d="M31 274v34h338v-34h-338z"/>
<glyph glyph-name="emdash" unicode="—" horiz-adv-x="656" d="M31 274v34h594v-34h-594z"/>
<glyph glyph-name="quoteleft" unicode="‘" horiz-adv-x="199" d="M182 701l3 -11q-109 -37 -104 -124q13 19 39 19q27 0 43.5 -16.5t16.5 -47.5q0 -32 -22.5 -51.5t-55.5 -19.5q-37 0 -63 25.5t-26 70.5q0 61 42.5 101t126.5 54z"/>
<glyph glyph-name="quoteright" unicode="’" horiz-adv-x="199" d="M18 454l-3 12q108 40 103 124q-12 -20 -39 -20q-26 0 -43 17t-17 47q0 33 22.5 52t55.5 19q36 0 62.5 -25.5t26.5 -70.5q0 -125 -168 -155z"/>
<glyph glyph-name="quotesinglbase" unicode="‚" horiz-adv-x="199" d="M18 -106l-3 12q108 40 103 124q-12 -20 -39 -20q-26 0 -43 17t-17 47q0 32 22.5 51.5t55.5 19.5q36 0 62.5 -25.5t26.5 -70.5q0 -125 -168 -155z"/>
<glyph glyph-name="quotedblleft" unicode="“" horiz-adv-x="394" d="M377 701l3 -11q-109 -37 -104 -124q13 19 39 19q27 0 43.5 -16.5t16.5 -47.5q0 -32 -22.5 -51.5t-55.5 -19.5q-37 0 -63 25.5t-26 70.5q0 61 42.5 101t126.5 54zM182 701l3 -11q-109 -37 -104 -124q13 19 39 19q27 0 43.5 -16.5t16.5 -47.5q0 -32 -22.5 -51.5 t-55.5 -19.5q-37 0 -63 25.5t-26 70.5q0 61 42.5 101t126.5 54z"/>
<glyph glyph-name="quotedblright" unicode="”" horiz-adv-x="394" d="M18 454l-3 12q108 40 103 124q-12 -20 -39 -20q-26 0 -43 17t-17 47q0 33 22.5 52t55.5 19q36 0 62.5 -25.5t26.5 -70.5q0 -125 -168 -155zM213 454l-3 12q108 40 103 124q-12 -20 -39 -20q-26 0 -43 17t-17 47q0 33 22.5 52t55.5 19q36 0 62.5 -25.5t26.5 -70.5 q0 -125 -168 -155z"/>
<glyph glyph-name="quotedblbase" unicode="„" horiz-adv-x="394" d="M18 -106l-3 12q108 40 103 124q-12 -20 -39 -20q-26 0 -43 17t-17 47q0 32 22.5 51.5t55.5 19.5q36 0 62.5 -25.5t26.5 -70.5q0 -125 -168 -155zM213 -106l-3 12q108 40 103 124q-12 -20 -39 -20q-26 0 -43 17t-17 47q0 32 22.5 51.5t55.5 19.5q36 0 62.5 -25.5 t26.5 -70.5q0 -125 -168 -155z"/>
<glyph glyph-name="dagger" unicode="†" horiz-adv-x="415" d="M198 484q-19 -4 -60.5 -29.5t-62.5 -25.5q-28 0 -45 18.5t-17 45.5t17 45t45 18q21 0 62.5 -25.5t60.5 -29.5q-4 22 -32.5 69t-28.5 68q0 27 19.5 45.5t50.5 18.5t50.5 -18.5t19.5 -45.5q0 -20 -29 -66.5t-31 -70.5q18 4 59.5 29.5t62.5 25.5q29 0 46 -18t17 -45 t-17.5 -45.5t-45.5 -18.5q-21 0 -62.5 25.5t-59.5 29.5q5 -62 64 -116l-67 -435h-13l-67 435q25 23 43.5 55.5t20.5 60.5z"/>
<glyph glyph-name="daggerdbl" unicode="‡" horiz-adv-x="410" d="M275 429l-65 -102h-10l-66 102q54 32 61 82q-19 -4 -59 -29t-61 -25q-28 0 -45 18t-17 44q0 27 17 45t45 18q21 0 61 -25.5t59 -29.5q-3 24 -31.5 70.5t-28.5 65.5q0 25 19 41.5t51 16.5t50.5 -16.5t18.5 -41.5q0 -19 -28 -65.5t-31 -70.5q18 4 58 29.5t62 25.5 q28 0 45 -18t17 -45q0 -26 -17 -44t-45 -18q-22 0 -62 25t-58 29q8 -50 60 -82zM210 314l65 -102q-53 -30 -60 -82q18 4 58 29t62 25q28 0 45 -18t17 -44q0 -27 -16.5 -44.5t-45.5 -17.5q-22 0 -62 25t-58 29q3 -24 31 -70.5t28 -65.5q0 -25 -18.5 -41t-50.5 -16t-51 16 t-19 41q0 19 28.5 65.5t31.5 70.5q-19 -4 -59 -29t-61 -25q-29 0 -45.5 17.5t-16.5 44.5q0 26 17 44t45 18q21 0 61 -25t59 -29q-7 51 -61 82l66 102h10z"/>
<glyph glyph-name="bullet" unicode="•" horiz-adv-x="290" d="M19 330q0 53 37 89.5t89 36.5q51 0 88.5 -36.5t37.5 -89.5q0 -50 -38 -87.5t-88 -37.5q-51 0 -88.5 37.5t-37.5 87.5z"/>
<glyph glyph-name="ellipsis" unicode="…" horiz-adv-x="665" d="M22 79q0 38 25 62t62 24q36 0 61.5 -24.5t25.5 -61.5q0 -36 -26 -61t-61 -25q-36 0 -61.5 25t-25.5 61zM245 79q0 38 25 62t62 24q36 0 61.5 -24.5t25.5 -61.5q0 -36 -26 -61t-61 -25q-36 0 -61.5 25t-25.5 61zM468 79q0 38 25 62t62 24q36 0 61.5 -24.5t25.5 -61.5 q0 -36 -26 -61t-61 -25q-36 0 -61.5 25t-25.5 61z"/>
<glyph glyph-name="perthousand" unicode="‰" horiz-adv-x="1085" d="M65 -50l526 764h39l-526 -764h-39zM195 358q-74 0 -123.5 43t-49.5 126q0 60 30 102t68.5 58.5t78.5 16.5q71 0 123 -45t52 -126q0 -86 -53.5 -130.5t-125.5 -44.5zM198 384q33 0 43 29t10 113q0 90 -11 121t-42 31q-29 0 -41.5 -30t-12.5 -114q0 -87 11 -118.5t43 -31.5 zM510 -12q-74 0 -123.5 43t-49.5 126q0 46 17 81.5t44 55.5t56.5 30t58.5 10q72 0 123.5 -45t51.5 -126q0 -86 -53.5 -130.5t-124.5 -44.5zM512 14q33 0 43 29t10 113q0 90 -11 121t-42 31q-29 0 -41 -29.5t-12 -114.5q0 -88 10.5 -119t42.5 -31zM884 -12q-74 0 -123.5 43 t-49.5 126q0 60 30 102t68.5 58.5t78.5 16.5q72 0 123.5 -45t51.5 -126q0 -86 -53.5 -130.5t-125.5 -44.5zM887 14q33 0 43 29t10 113q0 90 -11 121t-42 31q-29 0 -41.5 -30t-12.5 -114q0 -87 11 -118.5t43 -31.5z"/>
<glyph glyph-name="uni2032" unicode="′" horiz-adv-x="196" d="M62 432l-28 172q-17 104 66 104q42 0 60.5 -30t-0.5 -75l-81 -171h-17z"/>
<glyph glyph-name="uni2033" unicode="″" horiz-adv-x="363" d="M62 432l-28 172q-17 104 66 104q42 0 60.5 -30t-0.5 -75l-81 -171h-17zM229 432l-28 172q-17 104 66 104q42 0 60 -30t-1 -75l-80 -171h-17z"/>
<glyph glyph-name="guilsinglleft" unicode="‹" horiz-adv-x="239" d="M194 48l-175 201v7l175 201h19l-87 -203l87 -206h-19z"/>
<glyph glyph-name="guilsinglright" unicode="›" horiz-adv-x="239" d="M220 249l-175 -201h-19l87 203l-87 206h19l175 -201v-7z"/>
<glyph glyph-name="fraction" unicode="⁄" horiz-adv-x="338" d="M-114 -50l527 764h39l-526 -764h-40z"/>
<glyph glyph-name="Euro" unicode="€" horiz-adv-x="601" d="M2 383v30h61q20 143 115.5 217.5t218.5 74.5q83 0 139.5 -31t56.5 -88q0 -32 -22.5 -49.5t-55.5 -17.5q-48 0 -66.5 23t-22.5 85q-2 32 -9.5 41t-29.5 9q-40 0 -66 -21t-43.5 -81t-19.5 -162h204l-6 -30h-199v-19q0 -37 1 -54h183l-6 -30h-175q9 -122 54 -168.5 t133 -46.5q66 0 135 37v-18q-27 -37 -84.5 -66.5t-134.5 -29.5q-133 0 -211 72t-92 220h-58v30h56v29q0 14 2 44h-58z"/>
<glyph glyph-name="trademark" unicode="™" horiz-adv-x="692" d="M296 421v12l19 4q13 3 17 9.5t4 27.5v174q0 15 -3 19.5t-15 7.5l-17 5v13h137l51 -148h3l52 148h139v-11l-17 -4q-11 -3 -13.5 -8t-2.5 -21v-184q0 -17 2.5 -21.5t13.5 -6.5l19 -4v-12h-166v12l19 4q11 2 13.5 7t2.5 21v191h-2l-79 -232h-32l-84 232h-1v-180q0 -23 3 -30 t15 -9l21 -4v-12h-99zM101 468v207h-4q-27 0 -40 -17q-6 -9 -30 -73h-11l3 108h257l4 -108h-11q-22 57 -32 73q-13 17 -40 17h-3v-207q0 -18 3 -22.5t14 -6.5l23 -5v-12h-173v12l22 5q12 2 15 7t3 22z"/>
<glyph glyph-name="onethird" unicode="⅓" horiz-adv-x="744" d="M6 309v16l18 5l15 5t7.5 6.5t5 13t0.5 23.5v208l-45 11v15q50 8 97 32t73 54l19 -5v-315q0 -28 5.5 -36t23.5 -12l18 -5v-16h-237zM65 -50l527 764h39l-526 -764h-40zM546 -7q-65 0 -100 20t-35 56q0 41 49 41q27 0 39.5 -14.5t15.5 -50.5q2 -17 7 -22t20 -5q50 0 50 82 q0 47 -17.5 67t-55.5 20h-26v28h24q67 0 67 80q0 71 -36 71q-12 0 -16.5 -4.5t-7.5 -20.5q-6 -32 -17.5 -46t-37.5 -14q-45 0 -45 41q0 31 33.5 50t98.5 19q69 0 111.5 -23.5t42.5 -71.5q0 -34 -27.5 -56.5t-80.5 -29.5v-3q64 -7 94 -31t30 -71q0 -49 -46 -80.5t-134 -31.5z "/>
<glyph glyph-name="twothirds" unicode="⅔" horiz-adv-x="772" d="M8 309v59q72 56 106 91q66 74 66 145q0 70 -38 70q-9 0 -13.5 -3.5t-6 -9t-3.5 -19.5q-4 -36 -17 -50t-45 -14q-23 0 -35.5 13t-12.5 34q0 34 40 54.5t109 20.5q73 0 115 -29t42 -84q0 -46 -51 -89t-173 -91v-3h154q19 0 27.5 9t21.5 40h17l-8 -144h-295zM98 -50l527 764 h39l-526 -764h-40zM574 -7q-65 0 -100 20t-35 56q0 41 49 41q27 0 39.5 -14.5t15.5 -50.5q2 -17 7 -22t20 -5q50 0 50 82q0 47 -17.5 67t-55.5 20h-26v28h24q67 0 67 80q0 71 -36 71q-12 0 -16.5 -4.5t-7.5 -20.5q-6 -32 -17.5 -46t-37.5 -14q-45 0 -45 41q0 31 33.5 50 t98.5 19q69 0 111.5 -23.5t42.5 -71.5q0 -34 -27.5 -56.5t-80.5 -29.5v-3q64 -7 94 -31t30 -71q0 -49 -46 -80.5t-134 -31.5z"/>
<glyph glyph-name="oneeighth" unicode="⅛" horiz-adv-x="744" d="M6 309v16l18 5l15 5t7.5 6.5t5 13t0.5 23.5v208l-45 11v15q50 8 97 32t73 54l19 -5v-315q0 -28 5.5 -36t23.5 -12l18 -5v-16h-237zM62 -50l527 764h39l-526 -764h-40zM554 -6q-78 0 -120 24t-42 63q0 63 93 83v3q-43 20 -60 44t-17 60q0 56 49.5 88t109.5 32t101 -21 t41 -63q0 -25 -23 -43.5t-56 -27.5v-3q48 -21 71.5 -46.5t23.5 -62.5q0 -55 -48 -92.5t-123 -37.5zM560 18q26 0 45.5 13.5t19.5 38.5q0 27 -23 44.5t-92 43.5q-23 -23 -23 -64q0 -76 73 -76zM601 244q17 17 17 58q0 64 -57 64q-25 0 -41 -12.5t-16 -32.5q0 -24 21 -42 t76 -35z"/>
<glyph glyph-name="threeeighths" unicode="⅜" horiz-adv-x="772" d="M88 -50l527 764h39l-526 -764h-40zM582 -6q-78 0 -120 24t-42 63q0 63 93 83v3q-43 20 -60 44t-17 60q0 56 49.5 88t109.5 32t101 -21t41 -63q0 -25 -23 -43.5t-56 -27.5v-3q48 -21 71.5 -46.5t23.5 -62.5q0 -55 -48 -92.5t-123 -37.5zM588 18q26 0 45.5 13.5t19.5 38.5 q0 27 -23 44.5t-92 43.5q-23 -23 -23 -64q0 -76 73 -76zM629 244q17 17 17 58q0 64 -57 64q-25 0 -41 -12.5t-16 -32.5q0 -24 21 -42t76 -35zM142 302q-65 0 -100 20t-35 56q0 41 49 41q27 0 39.5 -14.5t15.5 -50.5q2 -17 7 -22t20 -5q50 0 50 82q0 47 -17.5 67t-55.5 20 h-26v28h24q67 0 67 80q0 71 -36 71q-12 0 -16.5 -4.5t-7.5 -20.5q-6 -32 -17.5 -46t-37.5 -14q-45 0 -45 41q0 31 33.5 50t98.5 19q69 0 111.5 -23.5t42.5 -71.5q0 -34 -27.5 -56.5t-80.5 -29.5v-3q64 -7 94 -31t30 -71q0 -49 -46 -80.5t-134 -31.5z"/>
<glyph glyph-name="fiveeighths" unicode="⅝" horiz-adv-x="764" d="M74 -50l527 764h39l-526 -764h-40zM574 -6q-78 0 -120 24t-42 63q0 63 93 83v3q-43 20 -60 44t-17 60q0 56 49.5 88t109.5 32t101 -21t41 -63q0 -25 -23 -43.5t-56 -27.5v-3q48 -21 71.5 -46.5t23.5 -62.5q0 -55 -48 -92.5t-123 -37.5zM580 18q26 0 45.5 13.5t19.5 38.5 q0 27 -23 44.5t-92 43.5q-23 -23 -23 -64q0 -76 73 -76zM621 244q17 17 17 58q0 64 -57 64q-25 0 -41 -12.5t-16 -32.5q0 -24 21 -42t76 -35zM130 302q-61 0 -90 18t-29 47q0 42 47 42q23 0 34.5 -12.5t15.5 -39.5q4 -19 9.5 -24.5t22.5 -5.5q57 0 57 65q0 34 -23 52t-63 18 q-46 0 -70 -11l-9 5l27 237l184 -1q16 0 22.5 6t18.5 30h18l-13 -122h-211l-6 -52q30 10 83 10q77 0 116.5 -32t39.5 -89q0 -61 -48.5 -101t-132.5 -40z"/>
<glyph glyph-name="seveneighths" unicode="⅞" horiz-adv-x="746" d="M204 309h-148q30 173 202 293h-176q-22 0 -31.5 -8.5t-23.5 -42.5h-17l10 142h286v-58q-102 -122 -102 -326zM53 -50l527 764h39l-526 -764h-40zM556 -6q-78 0 -120 24t-42 63q0 63 93 83v3q-43 20 -60 44t-17 60q0 56 49.5 88t109.5 32t101 -21t41 -63q0 -25 -23 -43.5 t-56 -27.5v-3q48 -21 71.5 -46.5t23.5 -62.5q0 -55 -48 -92.5t-123 -37.5zM562 18q26 0 45.5 13.5t19.5 38.5q0 27 -23 44.5t-92 43.5q-23 -23 -23 -64q0 -76 73 -76zM603 244q17 17 17 58q0 64 -57 64q-25 0 -41 -12.5t-16 -32.5q0 -24 21 -42t76 -35z"/>
<glyph glyph-name="arrowleft" unicode="←" horiz-adv-x="815" d="M695 250l-339 16l80 -66q58 -48 38 -107q-15 -44 -59 -60q-56 -20 -103 25l-286 287v4l287 288q50 48 107 23q45 -20 56 -66q14 -56 -40 -100l-80 -66l339 16q65 3 91 -52q22 -49 -3 -96q-26 -49 -88 -46z"/>
<glyph glyph-name="arrowright" unicode="→" horiz-adv-x="815" d="M458 266l-339 -16q-65 -3 -91 52q-22 49 3 96q26 49 88 46l339 -16l-80 66q-57 47 -38 106q14 45 58 62q56 21 103 -25l287 -288v-4l-286 -287q-48 -48 -105 -25q-45 18 -58 63q-16 58 39 104z"/>
<glyph glyph-name="minus" unicode="−" horiz-adv-x="474" d="M42 329v31h389v-31h-389z"/>
<glyph glyph-name="uni24C5" unicode="Ⓟ" horiz-adv-x="782" d="M420 167v-16h-205v16l12 4q18 6 22 14t4 41v247q0 32 -5 41.5t-22 13.5l-11 3v17h193q87 0 130.5 -30.5t43.5 -86.5q0 -59 -34.5 -93t-99.5 -34q-26 0 -52 7v13q35 4 48.5 23.5t13.5 73.5q0 55 -14 78t-45 23q-15 0 -28 -3v-291q0 -38 4 -45t25 -12zM34 344 q0 149 103.5 253.5t253.5 104.5q149 0 252.5 -104.5t103.5 -253.5q0 -150 -103 -254t-253 -104t-253.5 104t-103.5 254zM69 344q0 -136 92.5 -232.5t229.5 -96.5t229.5 96.5t92.5 232.5t-92.5 232.5t-229.5 96.5t-229.5 -96.5t-92.5 -232.5z"/>
<glyph glyph-name="square" unicode="■" horiz-adv-x="923" d="M114 0v693h694v-693h-694z"/>
<glyph glyph-name="squareopen" unicode="□" horiz-adv-x="923" d="M114 0v693h694v-693h-694zM160 44h602v607h-602v-607z"/>
<glyph glyph-name="triangleup" unicode="▲" horiz-adv-x="826" d="M778 0h-729v14l354 710h20l355 -710v-14z"/>
<glyph glyph-name="triangleupopen" unicode="△" horiz-adv-x="804" d="M771 0h-729v14l359 710h10l360 -710v-14zM707 42l-302 597l-300 -597h602z"/>
<glyph glyph-name="triangleright" unicode="▶" horiz-adv-x="857" d="M114 -18v729h14l680 -359v-10l-680 -360h-14z"/>
<glyph glyph-name="trianglerightopen" unicode="▷" horiz-adv-x="857" d="M114 -18v729h14l680 -359v-10l-680 -360h-14zM160 45l569 302l-569 302v-604z"/>
<glyph glyph-name="triangledown" unicode="▼" horiz-adv-x="826" d="M48 693h729v-14l-354 -710h-20l-355 710v14z"/>
<glyph glyph-name="triangledownopen" unicode="▽" horiz-adv-x="804" d="M42 693h729v-14l-359 -710h-10l-360 710v14zM106 651l302 -597l300 597h-602z"/>
<glyph glyph-name="triangleleft" unicode="◀" horiz-adv-x="857" d="M742 711v-729h-14l-680 360v10l680 359h14z"/>
<glyph glyph-name="triangleleftopen" unicode="◁" horiz-adv-x="857" d="M742 711v-729h-14l-680 360v10l680 359h14zM127 347l569 -302v604z"/>
<glyph glyph-name="circle" unicode="○" horiz-adv-x="803" d="M400 -15q-150 0 -255.5 106t-105.5 256t105.5 255.5t255.5 105.5t256.5 -105.5t106.5 -255.5q0 -149 -106.5 -255.5t-256.5 -106.5z"/>
<glyph glyph-name="circleopen" unicode="●" horiz-adv-x="803" d="M400 -15q-150 0 -255.5 106t-105.5 256t105.5 255.5t255.5 105.5t256.5 -105.5t106.5 -255.5q0 -149 -106.5 -255.5t-256.5 -106.5zM400 27q131 0 223.5 94t92.5 226t-92.5 225.5t-223.5 93.5q-132 0 -223 -93t-91 -226q0 -132 91 -226t223 -94z"/>
<glyph glyph-name="star" unicode="★" horiz-adv-x="829" d="M167 -34l-7 4l96 291l-244 174v8h304l94 291h8l95 -291h303v-8l-243 -174l95 -289l-7 -4l-247 176z"/>
<glyph glyph-name="staropen" unicode="☆" horiz-adv-x="829" d="M167 -34l-7 4l96 291l-244 174v8h304l94 291h8l95 -291h303v-8l-243 -174l95 -289l-7 -4l-247 176zM227 54l188 140l186 -140l-76 222l190 130h-229l-72 221l-72 -221h-228l189 -130z"/>
<glyph glyph-name="space_uni0326" d="M157 -244l-2 10q95 27 103 92q-13 -13 -38 -13q-26 0 -41 15t-15 39q0 25 20 43t54 18q36 0 59 -22t23 -57q0 -53 -43 -86t-120 -39z"/>
<glyph glyph-name="caron.alt" d="M219 569l-10 4l4 139q0 49 46 49q23 0 40 -13.5t19 -32.5q0 -24 -16 -41z"/>
<glyph glyph-name="space_uni0326.alt" d="M324 767l2 -10q-93 -26 -104 -93q14 14 39 14t40.5 -15t15.5 -40q0 -24 -20.5 -42t-53.5 -18q-36 0 -59.5 22t-23.5 57q0 53 43 86t121 39z"/>
<glyph glyph-name="acute.pl" d="M224 561l-7 6l29 141q13 58 60 58q29 0 47.5 -18.5t18.5 -43.5q0 -32 -38 -59z"/>
<glyph glyph-name="grave.uc" d="M353 732l-4 -9l-182 29q-56 8 -56 60q0 28 18 47.5t45 19.5q29 0 55 -26z"/>
<glyph glyph-name="dieresis.uc" d="M135 722q-34 0 -57 21t-23 57t23 57t57 21q36 0 59 -21t23 -57t-23 -57t-59 -21zM344 722q-34 0 -57 21t-23 57t23 57t57 21q36 0 59 -21t23 -57t-23 -57t-59 -21z"/>
<glyph glyph-name="macron.uc" d="M102 755v63h276v-63h-276z"/>
<glyph glyph-name="acute.uc" d="M131 724l-4 10l124 120q26 26 55 26q27 0 45 -19.5t18 -47.5q0 -51 -56 -60z"/>
<glyph glyph-name="circumflex.uc" d="M86 723l-5 9l131 142h56l132 -142l-6 -9l-154 46z"/>
<glyph glyph-name="caron.uc" d="M81 872l5 9l154 -46l154 46l6 -9l-132 -142h-56z"/>
<glyph glyph-name="breve.uc" d="M240 726q-115 0 -137 150l10 4q21 -33 48.5 -47t78.5 -14q48 0 76.5 14.5t50.5 46.5l10 -4q-9 -70 -43 -110t-94 -40z"/>
<glyph glyph-name="dotaccent.uc" horiz-adv-x="335" d="M168 725q-38 0 -63 22.5t-25 59.5q0 36 25 58.5t63 22.5t63 -22.5t25 -58.5q0 -37 -25 -59.5t-63 -22.5z"/>
<glyph glyph-name="ring.uc" horiz-adv-x="481" d="M148 807q0 38 27 63.5t65 25.5t65 -25.5t27 -63.5t-27 -63t-65 -25t-65 25t-27 63zM183 807q0 -27 15.5 -44t41.5 -17t41.5 17t15.5 44t-15.5 44.5t-41.5 17.5t-41.5 -17.5t-15.5 -44.5z"/>
<glyph glyph-name="tilde.uc" d="M308 743q-20 0 -82.5 10t-84.5 10q-20 0 -32 -9t-27 -33l-13 7q24 71 45.5 103t57.5 32q20 0 82 -10.5t84 -10.5q20 0 32.5 9.5t27.5 33.5l13 -7q-23 -72 -44 -103.5t-59 -31.5z"/>
<glyph glyph-name="hungarumlaut.uc" d="M114 725l-10 7l51 120q20 47 53 47q22 0 40.5 -17.5t18.5 -40.5q0 -34 -47 -60zM284 725l-9 7l50 120q20 47 53 47q22 0 41 -17.5t19 -40.5q0 -34 -48 -60z"/>
<glyph glyph-name="acute.ucpl" d="M181 723l-7 6l32 124q16 58 60 58q25 0 45 -17.5t20 -41.5q0 -33 -38 -57z"/>
<glyph glyph-name="Cacute.pl" horiz-adv-x="623" d="M365 -12q-158 0 -251 90.5t-93 262.5q0 93 29.5 164.5t81 114t117 64t142.5 21.5q109 0 185 -24l15 -221h-17q-51 106 -90 159q-21 31 -43.5 44.5t-59.5 13.5q-152 0 -152 -316q0 -191 35 -268t110 -77q45 0 72 13.5t53 50.5q27 38 82 159h17l-12 -212q-99 -39 -221 -39z M338 723l-7 6l32 124q16 58 60 58q25 0 45 -17.5t20 -41.5q0 -33 -38 -57z"/>
<glyph glyph-name="Nacute.pl" horiz-adv-x="670" d="M324 723l-7 6l32 124q16 58 60 58q25 0 45 -17.5t20 -41.5q0 -33 -38 -57zM534 -1l-415 585h-3v-461q0 -58 8 -75.5t41 -24.5l33 -8v-15h-191v15l30 8q28 8 35 24t7 71v477q0 39 -8.5 54t-34.5 22l-29 7v15h268l276 -384h3v261q0 59 -7.5 75t-40.5 24l-36 9v15h193v-15 l-30 -8q-27 -6 -34.5 -23.5t-7.5 -71.5v-576h-57z"/>
<glyph glyph-name="Oacute.pl" horiz-adv-x="727" d="M341 723l-7 6l32 124q16 58 60 58q25 0 45 -17.5t20 -41.5q0 -33 -38 -57zM361 -12q-67 0 -127 21t-108 62.5t-76.5 110t-28.5 156.5q0 95 31 168.5t82.5 115t110.5 62.5t122 21q54 0 102.5 -12t92.5 -38.5t75.5 -66.5t50.5 -100t19 -134q0 -96 -31 -169.5t-82.5 -115 t-110.5 -61.5t-122 -20zM364 16q72 0 104 69.5t32 246.5q0 192 -32 268.5t-105 76.5q-70 0 -103 -71t-33 -246q0 -193 32 -268.5t105 -75.5z"/>
<glyph glyph-name="Sacute.pl" horiz-adv-x="513" d="M233 -12q-137 0 -206 32l-12 204h18q45 -92 81 -140q28 -36 57 -52t72 -16q51 0 79 28.5t28 79.5t-31 82t-112 61q-102 36 -145.5 86t-43.5 132q0 94 71 157t184 63q109 0 175 -30l10 -183h-19q-40 90 -77 132q-26 30 -48.5 41.5t-55.5 11.5q-49 0 -76.5 -25.5 t-27.5 -72.5q0 -43 29 -71.5t106 -58.5q118 -45 164.5 -93t46.5 -128q0 -99 -72 -169.5t-195 -70.5zM231 723l-7 6l32 124q16 58 60 58q25 0 45 -17.5t20 -41.5q0 -33 -38 -57z"/>
<glyph glyph-name="Zacute.pl" horiz-adv-x="617" d="M18 0v32l348 628v4h-42q-88 0 -117.5 -9.5t-50.5 -41.5q-38 -56 -82 -161h-18l14 241h517v-32l-352 -628v-4h46q108 0 140.5 10.5t60.5 52.5q29 40 88 164h19l-19 -256h-552zM295 723l-7 6l32 124q16 58 60 58q25 0 45 -17.5t20 -41.5q0 -33 -38 -57z"/>
<glyph glyph-name="cacute.pl" horiz-adv-x="494" d="M269 -12q-120 0 -187 70.5t-67 192.5q0 73 27 129.5t72 89.5t96.5 49.5t106.5 16.5q80 0 123.5 -26.5t43.5 -77.5q0 -69 -75 -69q-43 0 -59.5 20.5t-20.5 75.5q-4 31 -9.5 39.5t-27.5 8.5q-102 0 -102 -207q0 -118 34 -173t124 -55q67 0 130 34v-17q-22 -35 -79.5 -68 t-129.5 -33zM242 561l-7 6l29 141q13 58 60 58q29 0 47.5 -18.5t18.5 -43.5q0 -32 -38 -59z"/>
<glyph glyph-name="idotaccent" horiz-adv-x="299" d="M2 0v15l21 6q28 8 34 16t6 41v336q0 32 -5 41.5t-30 25.5l-31 20v9l236 25l7 -5q-4 -55 -4 -125v-327q0 -34 6 -41t35 -16l20 -6v-15h-295zM58 663q0 36 25 58.5t62 22.5q38 0 63 -22.5t25 -58.5q0 -38 -24.5 -59.5t-63.5 -21.5q-38 0 -62.5 22t-24.5 59z"/>
<glyph glyph-name="nacute.pl" horiz-adv-x="620" d="M302 561l-7 6l29 141q13 58 60 58q29 0 47.5 -18.5t18.5 -43.5q0 -32 -38 -59zM2 0v15l21 6q28 8 34 16t6 41v335q0 31 -5 41t-28 26l-31 21v9l226 25l8 -5l-1 -72h3q106 78 192 78q62 0 96 -34t34 -100v-324q0 -34 6 -41t35 -16l21 -6v-15h-290v15l19 5q26 6 31 14.5 t5 43.5v291q0 43 -15 59.5t-49 16.5q-50 0 -84 -12v-355q0 -35 5.5 -43.5t30.5 -14.5l19 -5v-15h-289z"/>
<glyph glyph-name="oacute.pl" horiz-adv-x="583" d="M291 -12q-117 0 -196.5 70.5t-79.5 201.5q0 93 41.5 157.5t102 91.5t132.5 27q117 0 196.5 -70t79.5 -202q0 -71 -23 -125.5t-62.5 -86.5t-88 -48t-102.5 -16zM294 15q34 0 53 17t30 70.5t11 152.5q0 104 -13 161.5t-32.5 75t-53.5 17.5q-48 0 -71 -49.5t-23 -186.5 q0 -107 11 -164t31 -75.5t57 -18.5zM277 561l-7 6l29 141q13 58 60 58q29 0 47.5 -18.5t18.5 -43.5q0 -32 -38 -59z"/>
<glyph glyph-name="sacute.pl" horiz-adv-x="430" d="M188 -12q-88 0 -163 21l-5 166h17q34 -64 69 -109q21 -28 42 -39t55 -11q37 0 59 19.5t22 54.5q0 34 -23.5 52.5t-100.5 49.5q-72 27 -106.5 65.5t-34.5 100.5q0 76 56.5 127t159.5 51q87 0 139 -21l6 -141h-15q-45 70 -62 89q-23 25 -40.5 35t-47.5 10q-35 0 -56 -18 t-21 -48q0 -32 22 -50t88 -43q91 -35 128.5 -74.5t37.5 -101.5q0 -83 -59 -134t-167 -51zM193 561l-7 6l29 141q13 58 60 58q29 0 47.5 -18.5t18.5 -43.5q0 -32 -38 -59z"/>
<glyph glyph-name="zacute.pl" horiz-adv-x="500" d="M14 0v36l279 450v4h-53q-53 0 -72.5 -6t-40.5 -31q-13 -14 -73 -115h-14l11 184h433v-34l-279 -452v-4h57q65 0 88 8t45 32q25 27 73 118h16l-18 -190h-452zM235 561l-7 6l29 141q13 58 60 58q29 0 47.5 -18.5t18.5 -43.5q0 -32 -38 -59z"/>
<glyph glyph-name="dollar.old" horiz-adv-x="510" d="M16 105q0 64 71 64q35 0 55 -20t28 -72q6 -34 16 -46t41 -14v234q-117 43 -161 92.5t-44 127.5q0 81 60.5 137.5t156.5 62.5v67h29v-66q99 0 149.5 -32.5t50.5 -76.5q0 -29 -19 -45.5t-49 -16.5q-38 0 -55.5 18.5t-23.5 68.5q-4 30 -14 41.5t-39 13.5v-214q2 -2 5 -2 q117 -45 166.5 -97.5t49.5 -128.5q0 -85 -61.5 -144.5t-171.5 -65.5v-85h-29v84q-211 4 -211 115zM357 122q0 41 -24.5 69.5t-76.5 48.5v-223q45 2 73 28t28 77zM147 549q0 -34 21 -59.5t71 -48.5v203q-92 -7 -92 -95z"/>
<glyph glyph-name="Euro.old" horiz-adv-x="568" d="M-1 361v30h57q19 134 111 207.5t211 73.5q77 0 128 -29t51 -79q0 -30 -19.5 -47t-52.5 -17q-39 0 -57.5 21.5t-24.5 78.5q-2 25 -10 33.5t-28 8.5q-56 0 -87 -57.5t-35 -193.5h194l-6 -30h-189v-14q0 -36 1 -52h174l-6 -30h-166q10 -116 51 -161.5t127 -45.5q71 0 134 39 v-18q-31 -41 -85.5 -66t-124.5 -25q-122 0 -201 69.5t-93 207.5h-54v30h52v27q0 26 1 39h-53z"/>
<glyph glyph-name="sterling.old" horiz-adv-x="527" d="M23 333v30h51q-21 74 -21 113q0 88 69 142.5t197 54.5q98 0 147.5 -29t49.5 -77q0 -28 -18.5 -45.5t-50.5 -17.5q-40 0 -58 20.5t-27 68.5q-5 33 -13.5 42.5t-29.5 9.5q-37 0 -51.5 -30.5t-14.5 -98.5q0 -10 13 -153h135v-30h-132q1 -12 1 -35q0 -65 -35.5 -103.5 t-120.5 -65.5v-4h304q29 0 44 15t30 64h17l-15 -204h-483v86q52 31 75 59t23 74q0 31 -25 114h-61z"/>
<glyph glyph-name="yen.old" horiz-adv-x="556" d="M29 297v28h150l-131 234q-26 46 -36.5 59t-28.5 19l-18 6v15h349v-15l-27 -7q-26 -8 -35 -16t-9 -22q0 -18 18 -55l92 -181h3l76 172q16 39 16 62q0 16 -9 24.5t-32 15.5l-25 7v15h180v-15l-15 -5q-21 -6 -34.5 -26t-42.5 -82l-94 -201v-4h151v-28h-151v-64h151v-29h-151 v-109q0 -42 7.5 -54.5t38.5 -18.5l32 -7v-15h-352v15l32 7q32 8 39 18.5t7 54.5v109h-151v29h151v64h-151z"/>
<glyph glyph-name="zero.old" horiz-adv-x="626" d="M309 -12q-124 0 -206.5 76t-82.5 222q0 83 26 146t69.5 99t94 53.5t106.5 17.5q57 0 108 -18t92.5 -53t65.5 -94.5t24 -135.5q0 -81 -26 -143t-69.5 -98t-94.5 -54t-107 -18zM313 16q60 0 84.5 62t24.5 210q0 112 -13 176t-35.5 87.5t-60.5 23.5q-61 0 -85 -60.5 t-24 -215.5q0 -158 26 -220.5t83 -62.5z"/>
<glyph glyph-name="one.old" horiz-adv-x="335" d="M4 0v15l33 6q27 4 34 15.5t7 47.5v392l-68 5v17q114 18 218 100l28 -6v-508q0 -37 6.5 -48t32.5 -15l33 -6v-15h-324z"/>
<glyph glyph-name="two.old" horiz-adv-x="509" d="M12 0v79q97 64 150 110q75 68 106.5 129.5t31.5 134.5q0 121 -84 121q-44 0 -46 -48q-2 -55 -21.5 -78t-58.5 -23q-33 0 -51.5 18t-18.5 51q0 46 53.5 77t157.5 31q115 0 180 -47t65 -127q0 -91 -84 -164.5t-260 -137.5v-4h343l-10 -122h-453z"/>
<glyph glyph-name="three.old" horiz-adv-x="541" d="M216 -124q-207 0 -207 110q0 29 18.5 47t52.5 18q39 0 57 -21t23 -72q3 -31 14 -43t40 -12q98 0 98 182q0 84 -26 118t-94 34h-48v31h40q65 0 92 33t27 121q0 86 -17 119.5t-57 33.5q-25 0 -35.5 -12.5t-12.5 -38.5q-5 -54 -25 -76t-61 -22q-67 0 -67 67q0 48 55 78.5 t159 30.5q248 0 248 -168q0 -64 -44.5 -110.5t-127.5 -61.5v-3q100 -4 147.5 -53.5t47.5 -122.5q0 -99 -78 -153t-219 -54z"/>
<glyph glyph-name="four.old" horiz-adv-x="570" d="M465 -112h-177v170h-282v48l344 484h115v-466h102l-9 -66h-93v-170zM62 124h226v315h-3l-223 -312v-3z"/>
<glyph glyph-name="five.old" horiz-adv-x="515" d="M203 -124q-98 0 -145.5 28t-47.5 77q0 30 17.5 49.5t53.5 19.5q37 0 56 -22.5t25 -73.5q4 -31 13.5 -41t38.5 -10q55 0 89 45t34 112q0 138 -162 138q-72 0 -114 -17l-11 7l44 402h386l-15 -139h-353l-15 -129q51 19 136 19q126 0 193 -56.5t67 -163.5 q0 -106 -81.5 -175.5t-208.5 -69.5z"/>
<glyph glyph-name="six.old" horiz-adv-x="597" d="M300 -12q-125 0 -200.5 82t-75.5 246q0 184 94.5 286.5t258.5 102.5q88 0 133 -28t45 -73q0 -31 -18 -48.5t-51 -17.5q-40 0 -59.5 20t-23.5 66q-4 32 -13 42.5t-33 10.5q-139 0 -145 -305q65 43 148 43q102 0 158 -48.5t56 -148.5q0 -103 -72 -166.5t-202 -63.5zM304 16 q49 0 68 47t19 147q0 85 -22 119t-76 34q-49 0 -82 -18l-1 -34q0 -160 18 -227.5t76 -67.5z"/>
<glyph glyph-name="seven.old" horiz-adv-x="503" d="M301 -112h-200q36 172 118.5 306t210.5 260h-319q-31 0 -43 -12t-34 -64h-19l15 212h467v-87q-97 -132 -138.5 -273.5t-57.5 -341.5z"/>
<glyph glyph-name="eight.old" horiz-adv-x="562" d="M273 -12q-117 0 -187.5 42.5t-70.5 122.5q0 57 38.5 96t120.5 65v3q-132 82 -132 191q0 86 67 141.5t179 55.5q94 0 162.5 -41t68.5 -112q0 -51 -35 -85t-106 -60v-3q91 -47 128.5 -92t37.5 -113q0 -90 -77 -150.5t-194 -60.5zM351 417q42 48 42 127q0 64 -30.5 98 t-82.5 34q-50 0 -78.5 -28t-28.5 -75q0 -50 40 -81t138 -75zM280 17q64 0 98.5 29.5t34.5 79.5q0 53 -42 85t-169 92q-56 -65 -56 -135q0 -151 134 -151z"/>
<glyph glyph-name="nine.old" horiz-adv-x="597" d="M295 601q126 0 203 -81t77 -251q0 -195 -97 -294t-255 -99q-89 0 -135.5 29t-46.5 74q0 31 19.5 49.5t54.5 18.5t53 -20.5t26 -71.5q6 -32 14 -41.5t34 -9.5q70 0 105.5 73t39.5 239q-61 -46 -151 -46q-102 0 -158 54.5t-56 153.5q0 103 71.5 163t201.5 60zM292 574 q-49 0 -67.5 -47.5t-18.5 -146.5q0 -83 23 -120.5t74 -37.5q53 0 85 23v29q0 167 -18.5 233.5t-77.5 66.5z"/>
<glyph glyph-name="percent.old" horiz-adv-x="696" d="M68 -46l499 723h39l-498 -723h-40zM184 341q-73 0 -120.5 41t-47.5 120q0 84 53.5 127t118.5 43q69 0 119 -43.5t50 -120.5q0 -81 -51.5 -124t-121.5 -43zM187 368q28 0 38.5 28.5t10.5 104.5q0 83 -11 113.5t-38 30.5q-26 0 -38.5 -28.5t-12.5 -107.5q0 -81 11.5 -111 t39.5 -30zM507 -13q-72 0 -120 42t-48 119q0 85 53.5 127.5t118.5 42.5q69 0 119 -43t50 -121q0 -81 -51.5 -124t-121.5 -43zM510 15q28 0 38.5 28.5t10.5 104.5q0 83 -11 113.5t-38 30.5q-26 0 -38 -28.5t-12 -108.5q0 -81 11 -110.5t39 -29.5z"/>
<glyph glyph-name="perthousand.old" horiz-adv-x="1058" d="M68 -46l499 723h39l-498 -723h-40zM183 341q-73 0 -120.5 41t-47.5 120q0 84 53.5 127t118.5 43q69 0 119 -43.5t50 -120.5q0 -81 -51.5 -124t-121.5 -43zM186 368q28 0 38.5 28.5t10.5 104.5q0 83 -11 113.5t-38 30.5q-26 0 -38 -28.5t-12 -107.5q0 -82 11 -111.5 t39 -29.5zM507 -13q-72 0 -120 42t-48 119q0 85 53.5 127.5t118.5 42.5q69 0 119 -43t50 -121q0 -81 -51.5 -124t-121.5 -43zM510 15q28 0 38.5 28.5t10.5 104.5q0 83 -11 113.5t-38 30.5q-26 0 -38 -28.5t-12 -108.5q0 -81 11 -110.5t39 -29.5zM869 -13q-72 0 -120 42 t-48 119q0 85 53.5 127.5t118.5 42.5q71 0 120 -43t49 -121q0 -81 -51.5 -124t-121.5 -43zM872 15q28 0 38.5 28.5t10.5 104.5q0 83 -11 113.5t-38 30.5q-26 0 -38 -28.5t-12 -108.5q0 -81 11 -110.5t39 -29.5z"/>
<glyph glyph-name="plus.old" horiz-adv-x="474" d="M221 82v191h-179v30h179v190h33v-190h178v-30h-178v-191h-33z"/>
<glyph glyph-name="minus.old" horiz-adv-x="474" d="M42 272v31h389v-31h-389z"/>
<glyph glyph-name="multiply.old" horiz-adv-x="447" d="M372 467l23 -23l-149 -157l149 -156l-22 -23l-149 156l-149 -156l-23 23l149 156l-148 157l22 23l148 -157z"/>
<glyph glyph-name="divide.old" horiz-adv-x="473" d="M42 272v31h389v-31h-389zM236 66q-29 0 -49.5 21t-20.5 48q0 30 20 50t50 20q28 0 48.5 -20t20.5 -50q0 -27 -20.5 -48t-48.5 -21zM236 370q-29 0 -49.5 21t-20.5 49q0 30 20 49.5t50 19.5q28 0 48.5 -20t20.5 -49q0 -28 -20.5 -49t-48.5 -21z"/>
<glyph glyph-name="equal.old" horiz-adv-x="530" d="M46 343v31h438v-31h-438zM46 202v32h438v-32h-438z"/>
<glyph glyph-name="less.old" horiz-adv-x="468" d="M415 102l-373 172v29l373 172v-34l-331 -152l331 -153v-34z"/>
<glyph glyph-name="greater.old" horiz-adv-x="468" d="M426 274l-373 -172v34l332 153l-332 152v34l373 -172v-29z"/>
<glyph glyph-name="numbersign.old" horiz-adv-x="444" d="M201 0l41 181h-110l-42 -181h-32l42 181h-87l26 107h86l20 92h-85l24 107h86l40 171h32l-40 -171h111l40 171h31l-39 -171h86l-26 -107h-85l-21 -92h87l-25 -107h-87l-41 -181h-32zM177 380l-21 -92h111l21 92h-111z"/>
<glyph glyph-name="zero.num" horiz-adv-x="424" d="M208 302q-78 0 -134 54t-56 141q0 99 58.5 151t136.5 52t136 -52t58 -145q0 -91 -59.5 -146t-139.5 -55zM212 327q30 0 42.5 33.5t12.5 135.5q0 77 -6.5 116.5t-17.5 51t-31 11.5q-19 0 -30 -10.5t-18.5 -49t-7.5 -109.5q0 -111 12.5 -145t43.5 -34z"/>
<glyph glyph-name="one.num" horiz-adv-x="248" d="M6 309v16l18 5l15 5t7.5 6.5t5 13t0.5 23.5v208l-45 11v15q50 8 97 32t73 54l19 -5v-315q0 -28 5.5 -36t23.5 -12l18 -5v-16h-237z"/>
<glyph glyph-name="two.num" horiz-adv-x="328" d="M8 309v59q72 56 106 91q66 74 66 145q0 70 -38 70q-9 0 -13.5 -3.5t-6 -9t-3.5 -19.5q-4 -36 -17 -50t-45 -14q-23 0 -35.5 13t-12.5 34q0 34 40 54.5t109 20.5q73 0 115 -29t42 -84q0 -46 -51 -89t-173 -91v-3h154q19 0 27.5 9t21.5 40h17l-8 -144h-295z"/>
<glyph glyph-name="three.num" horiz-adv-x="340" d="M142 302q-65 0 -100 20t-35 56q0 41 49 41q27 0 39.5 -14.5t15.5 -50.5q2 -17 7 -22t20 -5q50 0 50 82q0 47 -17.5 67t-55.5 20h-26v28h24q67 0 67 80q0 71 -36 71q-12 0 -16.5 -4.5t-7.5 -20.5q-6 -32 -17.5 -46t-37.5 -14q-45 0 -45 41q0 31 33.5 50t98.5 19 q69 0 111.5 -23.5t42.5 -71.5q0 -34 -27.5 -56.5t-80.5 -29.5v-3q64 -7 94 -31t30 -71q0 -49 -46 -80.5t-134 -31.5z"/>
<glyph glyph-name="four.num" horiz-adv-x="358" d="M112 309v16l18 5q20 4 25 11.5t5 36.5v38h-156v30l199 247h93v-235h57l-4 -42h-53v-38q0 -30 4.5 -37t24.5 -11l20 -5v-16h-233zM50 458h110v138h-2l-108 -136v-2z"/>
<glyph glyph-name="five.num" horiz-adv-x="331" d="M130 302q-61 0 -90 18t-29 47q0 42 47 42q23 0 34.5 -12.5t15.5 -39.5q4 -19 9.5 -24.5t22.5 -5.5q57 0 57 65q0 34 -23 52t-63 18q-46 0 -70 -11l-9 5l27 237l184 -1q16 0 22.5 6t18.5 30h18l-13 -122h-211l-6 -52q30 10 83 10q77 0 116.5 -32t39.5 -89 q0 -61 -48.5 -101t-132.5 -40z"/>
<glyph glyph-name="six.num" horiz-adv-x="380" d="M198 302q-85 0 -133 46.5t-48 138.5q0 105 64.5 159t156.5 54q56 0 84.5 -18t28.5 -49q0 -43 -52 -43q-28 0 -38 12.5t-14 44.5q-2 16 -7 22t-17 6q-30 0 -48 -33.5t-20 -121.5q39 22 86 22q57 0 90.5 -28t33.5 -85q0 -55 -44 -91t-123 -36zM195 326q22 0 30.5 20t8.5 74 q0 49 -12.5 66t-35.5 17q-18 0 -31 -7v-11q0 -100 8 -129.5t32 -29.5z"/>
<glyph glyph-name="seven.num" horiz-adv-x="317" d="M204 309h-148q30 173 202 293h-176q-22 0 -31.5 -8.5t-23.5 -42.5h-17l10 142h286v-58q-102 -122 -102 -326z"/>
<glyph glyph-name="eight.num" horiz-adv-x="368" d="M178 303q-78 0 -120 24t-42 63q0 63 93 83v3q-43 20 -60 44t-17 60q0 56 49.5 88t109.5 32t101 -21t41 -63q0 -25 -23 -43.5t-56 -27.5v-3q48 -21 71.5 -46.5t23.5 -62.5q0 -55 -48 -92.5t-123 -37.5zM184 327q26 0 45.5 13.5t19.5 38.5q0 27 -23 44.5t-92 43.5 q-23 -23 -23 -64q0 -76 73 -76zM225 553q17 17 17 58q0 64 -57 64q-25 0 -41 -12.5t-16 -32.5q0 -24 21 -42t76 -35z"/>
<glyph glyph-name="nine.num" horiz-adv-x="380" d="M181 699q85 0 133.5 -46.5t48.5 -138.5q0 -107 -61.5 -160t-158.5 -53q-55 0 -84 18.5t-29 48.5q0 20 14 31.5t39 11.5q26 0 36.5 -13t14.5 -44q3 -18 7 -23t16 -5q34 0 48.5 30.5t18.5 123.5q-35 -21 -85 -21q-57 0 -90.5 28t-33.5 85q0 56 43.5 91.5t122.5 35.5z M185 675q-22 0 -30.5 -19.5t-8.5 -74.5q0 -49 12.5 -66t34.5 -17q20 0 31 7v11q0 100 -8 129.5t-31 29.5z"/>
<glyph glyph-name="zero.den" horiz-adv-x="424" d="M208 -7q-78 0 -134 54t-56 141q0 99 58.5 151t136.5 52t136 -52t58 -145q0 -91 -59.5 -146t-139.5 -55zM212 18q30 0 42.5 33.5t12.5 135.5q0 77 -6.5 116.5t-17.5 51t-31 11.5q-19 0 -30 -10.5t-18.5 -49t-7.5 -109.5q0 -111 12.5 -145t43.5 -34z"/>
<glyph glyph-name="one.den" horiz-adv-x="248" d="M6 0v16l18 5l15 5t7.5 6.5t5 13t0.5 23.5v208l-45 11v15q50 8 97 32t73 54l19 -5v-315q0 -28 5.5 -36t23.5 -12l18 -5v-16h-237z"/>
<glyph glyph-name="two.den" horiz-adv-x="328" d="M8 0v59q72 56 106 91q66 74 66 145q0 70 -38 70q-9 0 -13.5 -3.5t-6 -9t-3.5 -19.5q-4 -36 -17 -50t-45 -14q-23 0 -35.5 13t-12.5 34q0 34 40 54.5t109 20.5q73 0 115 -29t42 -84q0 -46 -51 -89t-173 -91v-3h154q19 0 27.5 9t21.5 40h17l-8 -144h-295z"/>
<glyph glyph-name="three.den" horiz-adv-x="340" d="M142 -7q-65 0 -100 20t-35 56q0 41 49 41q27 0 39.5 -14.5t15.5 -50.5q2 -17 7 -22t20 -5q50 0 50 82q0 47 -17.5 67t-55.5 20h-26v28h24q67 0 67 80q0 71 -36 71q-12 0 -16.5 -4.5t-7.5 -20.5q-6 -32 -17.5 -46t-37.5 -14q-45 0 -45 41q0 31 33.5 50t98.5 19 q69 0 111.5 -23.5t42.5 -71.5q0 -34 -27.5 -56.5t-80.5 -29.5v-3q64 -7 94 -31t30 -71q0 -49 -46 -80.5t-134 -31.5z"/>
<glyph glyph-name="four.den" horiz-adv-x="358" d="M112 0v16l18 5q20 4 25 11.5t5 36.5v38h-156v30l199 247h93v-235h57l-4 -42h-53v-38q0 -30 4.5 -37t24.5 -11l20 -5v-16h-233zM50 149h110v138h-2l-108 -136v-2z"/>
<glyph glyph-name="five.den" horiz-adv-x="331" d="M130 -7q-61 0 -90 18t-29 47q0 42 47 42q23 0 34.5 -12.5t15.5 -39.5q4 -19 9.5 -24.5t22.5 -5.5q57 0 57 65q0 34 -23 52t-63 18q-46 0 -70 -11l-9 5l27 237l184 -1q16 0 22.5 6t18.5 30h18l-13 -122h-211l-6 -52q30 10 83 10q77 0 116.5 -32t39.5 -89q0 -61 -48.5 -101 t-132.5 -40z"/>
<glyph glyph-name="six.den" horiz-adv-x="380" d="M198 -7q-85 0 -133 46.5t-48 138.5q0 105 64.5 159t156.5 54q56 0 84.5 -18t28.5 -49q0 -43 -52 -43q-28 0 -38 12.5t-14 44.5q-2 16 -7 22t-17 6q-30 0 -48 -33.5t-20 -121.5q39 22 86 22q57 0 90.5 -28t33.5 -85q0 -55 -44 -91t-123 -36zM195 17q22 0 30.5 20t8.5 74 q0 49 -12.5 66t-35.5 17q-18 0 -31 -7v-11q0 -100 8 -129.5t32 -29.5z"/>
<glyph glyph-name="seven.den" horiz-adv-x="317" d="M204 0h-148q30 173 202 293h-176q-22 0 -31.5 -8.5t-23.5 -42.5h-17l10 142h286v-58q-102 -122 -102 -326z"/>
<glyph glyph-name="eight.den" horiz-adv-x="368" d="M178 -6q-78 0 -120 24t-42 63q0 63 93 83v3q-43 20 -60 44t-17 60q0 56 49.5 88t109.5 32t101 -21t41 -63q0 -25 -23 -43.5t-56 -27.5v-3q48 -21 71.5 -46.5t23.5 -62.5q0 -55 -48 -92.5t-123 -37.5zM184 18q26 0 45.5 13.5t19.5 38.5q0 27 -23 44.5t-92 43.5 q-23 -23 -23 -64q0 -76 73 -76zM225 244q17 17 17 58q0 64 -57 64q-25 0 -41 -12.5t-16 -32.5q0 -24 21 -42t76 -35z"/>
<glyph glyph-name="nine.den" horiz-adv-x="380" d="M181 390q85 0 133.5 -46.5t48.5 -138.5q0 -107 -61.5 -160t-158.5 -53q-55 0 -84 18.5t-29 48.5q0 20 14 31.5t39 11.5q26 0 36.5 -13t14.5 -44q3 -18 7 -23t16 -5q34 0 48.5 30.5t18.5 123.5q-35 -21 -85 -21q-57 0 -90.5 28t-33.5 85q0 56 43.5 91.5t122.5 35.5z M185 366q-22 0 -30.5 -19.5t-8.5 -74.5q0 -49 12.5 -66t34.5 -17q20 0 31 7v11q0 100 -8 129.5t-31 29.5z"/>
<glyph glyph-name="zero.sub" horiz-adv-x="424" d="M208 -56q-78 0 -134 54t-56 141q0 99 58.5 151t136.5 52t136 -52t58 -145q0 -91 -59.5 -146t-139.5 -55zM212 -31q30 0 42.5 33.5t12.5 135.5q0 77 -6.5 116.5t-17.5 51t-31 11.5q-19 0 -30 -10.5t-18.5 -49t-7.5 -109.5q0 -111 12.5 -145t43.5 -34z"/>
<glyph glyph-name="one.sub" horiz-adv-x="248" d="M6 -49v16l18 5l15 5t7.5 6.5t5 13t0.5 23.5v208l-45 11v15q50 8 97 32t73 54l19 -5v-315q0 -28 5.5 -36t23.5 -12l18 -5v-16h-237z"/>
<glyph glyph-name="two.sub" horiz-adv-x="328" d="M8 -49v59q72 56 106 91q66 74 66 145q0 70 -38 70q-9 0 -13.5 -3.5t-6 -9t-3.5 -19.5q-4 -36 -17 -50t-45 -14q-23 0 -35.5 13t-12.5 34q0 34 40 54.5t109 20.5q73 0 115 -29t42 -84q0 -46 -51 -89t-173 -91v-3h154q19 0 27.5 9t21.5 40h17l-8 -144h-295z"/>
<glyph glyph-name="three.sub" horiz-adv-x="340" d="M142 -56q-65 0 -100 20t-35 56q0 41 49 41q27 0 39.5 -14.5t15.5 -50.5q2 -17 7 -22t20 -5q50 0 50 82q0 47 -17.5 67t-55.5 20h-26v28h24q67 0 67 80q0 71 -36 71q-12 0 -16.5 -4.5t-7.5 -20.5q-6 -32 -17.5 -46t-37.5 -14q-45 0 -45 41q0 31 33.5 50t98.5 19 q69 0 111.5 -23.5t42.5 -71.5q0 -34 -27.5 -56.5t-80.5 -29.5v-3q64 -7 94 -31t30 -71q0 -49 -46 -80.5t-134 -31.5z"/>
<glyph glyph-name="four.sub" horiz-adv-x="358" d="M112 -49v16l18 5q20 4 25 11.5t5 36.5v38h-156v30l199 247h93v-235h57l-4 -42h-53v-38q0 -30 4.5 -37t24.5 -11l20 -5v-16h-233zM50 100h110v138h-2l-108 -136v-2z"/>
<glyph glyph-name="five.sub" horiz-adv-x="331" d="M130 -56q-61 0 -90 18t-29 47q0 42 47 42q23 0 34.5 -12.5t15.5 -39.5q4 -19 9.5 -24.5t22.5 -5.5q57 0 57 65q0 34 -23 52t-63 18q-46 0 -70 -11l-9 5l27 237l184 -1q16 0 22.5 6t18.5 30h18l-13 -122h-211l-6 -52q30 10 83 10q77 0 116.5 -32t39.5 -89 q0 -61 -48.5 -101t-132.5 -40z"/>
<glyph glyph-name="six.sub" horiz-adv-x="380" d="M198 -56q-85 0 -133 46.5t-48 138.5q0 105 64.5 159t156.5 54q56 0 84.5 -18t28.5 -49q0 -43 -52 -43q-28 0 -38 12.5t-14 44.5q-2 16 -7 22t-17 6q-30 0 -48 -33.5t-20 -121.5q39 22 86 22q57 0 90.5 -28t33.5 -85q0 -55 -44 -91t-123 -36zM195 -32q22 0 30.5 20t8.5 74 q0 49 -12.5 66t-35.5 17q-18 0 -31 -7v-11q0 -100 8 -129.5t32 -29.5z"/>
<glyph glyph-name="seven.sub" horiz-adv-x="317" d="M204 -49h-148q30 173 202 293h-176q-22 0 -31.5 -8.5t-23.5 -42.5h-17l10 142h286v-58q-102 -122 -102 -326z"/>
<glyph glyph-name="eight.sub" horiz-adv-x="368" d="M178 -55q-78 0 -120 24t-42 63q0 63 93 83v3q-43 20 -60 44t-17 60q0 56 49.5 88t109.5 32t101 -21t41 -63q0 -25 -23 -43.5t-56 -27.5v-3q48 -21 71.5 -46.5t23.5 -62.5q0 -55 -48 -92.5t-123 -37.5zM184 -31q26 0 45.5 13.5t19.5 38.5q0 27 -23 44.5t-92 43.5 q-23 -23 -23 -64q0 -76 73 -76zM225 195q17 17 17 58q0 64 -57 64q-25 0 -41 -12.5t-16 -32.5q0 -24 21 -42t76 -35z"/>
<glyph glyph-name="nine.sub" horiz-adv-x="380" d="M181 341q85 0 133.5 -46.5t48.5 -138.5q0 -107 -61.5 -160t-158.5 -53q-55 0 -84 18.5t-29 48.5q0 20 14 31.5t39 11.5q26 0 36.5 -13t14.5 -44q3 -18 7 -23t16 -5q34 0 48.5 30.5t18.5 123.5q-35 -21 -85 -21q-57 0 -90.5 28t-33.5 85q0 56 43.5 91.5t122.5 35.5z M185 317q-22 0 -30.5 -19.5t-8.5 -74.5q0 -49 12.5 -66t34.5 -17q20 0 31 7v11q0 100 -8 129.5t-31 29.5z"/>
<glyph glyph-name="zero.sup" horiz-adv-x="424" d="M208 399q-78 0 -134 54t-56 141q0 99 58.5 151t136.5 52t136 -52t58 -145q0 -91 -59.5 -146t-139.5 -55zM212 424q30 0 42.5 33.5t12.5 135.5q0 77 -6.5 116.5t-17.5 51t-31 11.5q-19 0 -30 -10.5t-18.5 -49t-7.5 -109.5q0 -111 12.5 -145t43.5 -34z"/>
<glyph glyph-name="one.sup" horiz-adv-x="248" d="M6 406v16l18 5l15 5t7.5 6.5t5 13t0.5 23.5v208l-45 11v15q50 8 97 32t73 54l19 -5v-315q0 -28 5.5 -36t23.5 -12l18 -5v-16h-237z"/>
<glyph glyph-name="two.sup" horiz-adv-x="328" d="M8 406v59q72 56 106 91q66 74 66 145q0 70 -38 70q-9 0 -13.5 -3.5t-6 -9t-3.5 -19.5q-4 -36 -17 -50t-45 -14q-23 0 -35.5 13t-12.5 34q0 34 40 54.5t109 20.5q73 0 115 -29t42 -84q0 -46 -51 -89t-173 -91v-3h154q19 0 27.5 9t21.5 40h17l-8 -144h-295z"/>
<glyph glyph-name="three.sup" horiz-adv-x="340" d="M142 399q-65 0 -100 20t-35 56q0 41 49 41q27 0 39.5 -14.5t15.5 -50.5q2 -17 7 -22t20 -5q50 0 50 82q0 47 -17.5 67t-55.5 20h-26v28h24q67 0 67 80q0 71 -36 71q-12 0 -16.5 -4.5t-7.5 -20.5q-6 -32 -17.5 -46t-37.5 -14q-45 0 -45 41q0 31 33.5 50t98.5 19 q69 0 111.5 -23.5t42.5 -71.5q0 -34 -27.5 -56.5t-80.5 -29.5v-3q64 -7 94 -31t30 -71q0 -49 -46 -80.5t-134 -31.5z"/>
<glyph glyph-name="four.sup" horiz-adv-x="358" d="M112 406v16l18 5q20 4 25 11.5t5 36.5v38h-156v30l199 247h93v-235h57l-4 -42h-53v-38q0 -30 4.5 -37t24.5 -11l20 -5v-16h-233zM50 555h110v138h-2l-108 -136v-2z"/>
<glyph glyph-name="five.sup" horiz-adv-x="331" d="M130 399q-61 0 -90 18t-29 47q0 42 47 42q23 0 34.5 -12.5t15.5 -39.5q4 -19 9.5 -24.5t22.5 -5.5q57 0 57 65q0 34 -23 52t-63 18q-46 0 -70 -11l-9 5l27 237l184 -1q16 0 22.5 6t18.5 30h18l-13 -122h-211l-6 -52q30 10 83 10q77 0 116.5 -32t39.5 -89 q0 -61 -48.5 -101t-132.5 -40z"/>
<glyph glyph-name="six.sup" horiz-adv-x="380" d="M198 399q-85 0 -133 46.5t-48 138.5q0 105 64.5 159t156.5 54q56 0 84.5 -18t28.5 -49q0 -43 -52 -43q-28 0 -38 12.5t-14 44.5q-2 16 -7 22t-17 6q-30 0 -48 -33.5t-20 -121.5q39 22 86 22q57 0 90.5 -28t33.5 -85q0 -55 -44 -91t-123 -36zM195 423q22 0 30.5 20t8.5 74 q0 49 -12.5 66t-35.5 17q-18 0 -31 -7v-11q0 -100 8 -129.5t32 -29.5z"/>
<glyph glyph-name="seven.sup" horiz-adv-x="317" d="M204 406h-148q30 173 202 293h-176q-22 0 -31.5 -8.5t-23.5 -42.5h-17l10 142h286v-58q-102 -122 -102 -326z"/>
<glyph glyph-name="eight.sup" horiz-adv-x="368" d="M178 400q-78 0 -120 24t-42 63q0 63 93 83v3q-43 20 -60 44t-17 60q0 56 49.5 88t109.5 32t101 -21t41 -63q0 -25 -23 -43.5t-56 -27.5v-3q48 -21 71.5 -46.5t23.5 -62.5q0 -55 -48 -92.5t-123 -37.5zM184 424q26 0 45.5 13.5t19.5 38.5q0 27 -23 44.5t-92 43.5 q-23 -23 -23 -64q0 -76 73 -76zM225 650q17 17 17 58q0 64 -57 64q-25 0 -41 -12.5t-16 -32.5q0 -24 21 -42t76 -35z"/>
<glyph glyph-name="nine.sup" horiz-adv-x="380" d="M181 796q85 0 133.5 -46.5t48.5 -138.5q0 -107 -61.5 -160t-158.5 -53q-55 0 -84 18.5t-29 48.5q0 20 14 31.5t39 11.5q26 0 36.5 -13t14.5 -44q3 -18 7 -23t16 -5q34 0 48.5 30.5t18.5 123.5q-35 -21 -85 -21q-57 0 -90.5 28t-33.5 85q0 56 43.5 91.5t122.5 35.5z M185 772q-22 0 -30.5 -19.5t-8.5 -74.5q0 -49 12.5 -66t34.5 -17q20 0 31 7v11q0 100 -8 129.5t-31 29.5z"/>
<glyph glyph-name="J.alt" horiz-adv-x="357" d="M22 -183q-76 0 -113.5 27.5t-37.5 69.5q0 32 20 49.5t55 17.5q41 0 59.5 -22.5t24.5 -89.5q1 -22 16 -22q33 0 33 91v657q0 47 -6.5 58.5t-34.5 17.5l-31 7v15h343v-15l-30 -7q-30 -9 -36 -19t-6 -57v-523q0 -115 -67 -185t-189 -70z"/>
<glyph glyph-name="R.alt" horiz-adv-x="706" d="M7 0v15l30 7q21 6 27.5 10.5t10.5 18.5t4 47v497q0 46 -6.5 56.5t-35.5 19.5l-30 7v15h333q155 0 223 -43t68 -138q0 -78 -49.5 -119t-158.5 -57v-3q50 -9 81 -24.5t56 -47.5q32 -40 65 -116t44 -92q17 -26 38 -32l17 -6v-15h-254q-15 36 -42 123t-43 125 q-15 38 -32.5 52.5t-49.5 14.5h-24v-217q0 -46 6.5 -58t32.5 -18l29 -7v-15h-340zM322 343q58 0 83.5 34t25.5 120q0 92 -22 127t-77 35q-37 0 -53 -4v-308q11 -4 43 -4z"/>
<glyph glyph-name="Jcircumflex.alt" horiz-adv-x="357" d="M24 723l-5 9l131 142h56l132 -142l-6 -9l-154 46zM22 -183q-76 0 -113.5 27.5t-37.5 69.5q0 32 20 49.5t55 17.5q41 0 59.5 -22.5t24.5 -89.5q1 -22 16 -22q33 0 33 91v657q0 47 -6.5 58.5t-34.5 17.5l-31 7v15h343v-15l-30 -7q-30 -9 -36 -19t-6 -57v-523 q0 -115 -67 -185t-189 -70z"/>
<glyph glyph-name="IJ.alt" horiz-adv-x="719" d="M7 0v15l32 7q29 6 36 18t7 58v497q0 46 -7 58t-36 18l-32 7v15h348v-15l-32 -7q-29 -6 -36 -18t-7 -58v-497q0 -46 7 -58t36 -18l32 -7v-15h-348zM384 -183q-76 0 -113.5 27.5t-37.5 69.5q0 32 20 49.5t55 17.5q40 0 59.5 -23t23.5 -89q3 -22 16 -22q34 0 34 91v657 q0 47 -6.5 58.5t-34.5 17.5l-31 7v15h343v-15l-30 -7q-31 -8 -37 -18t-6 -58v-523q0 -115 -67 -185t-188 -70z"/>
<glyph glyph-name="Racute.alt" horiz-adv-x="706" d="M234 724l-4 10l124 120q26 26 55 26q27 0 45 -19.5t18 -47.5q0 -51 -56 -60zM7 0v15l30 7q21 6 27.5 10.5t10.5 18.5t4 47v497q0 46 -6.5 56.5t-35.5 19.5l-30 7v15h333q155 0 223 -43t68 -138q0 -78 -49.5 -119t-158.5 -57v-3q50 -9 81 -24.5t56 -47.5q32 -40 65 -116 t44 -92q17 -26 38 -32l17 -6v-15h-254q-15 36 -42 123t-43 125q-15 38 -32.5 52.5t-49.5 14.5h-24v-217q0 -46 6.5 -58t32.5 -18l29 -7v-15h-340zM322 343q58 0 83.5 34t25.5 120q0 92 -22 127t-77 35q-37 0 -53 -4v-308q11 -4 43 -4z"/>
<glyph glyph-name="Rcaron.alt" horiz-adv-x="706" d="M176 872l5 9l154 -46l154 46l6 -9l-132 -142h-56zM7 0v15l30 7q21 6 27.5 10.5t10.5 18.5t4 47v497q0 46 -6.5 56.5t-35.5 19.5l-30 7v15h333q155 0 223 -43t68 -138q0 -78 -49.5 -119t-158.5 -57v-3q50 -9 81 -24.5t56 -47.5q32 -40 65 -116t44 -92q17 -26 38 -32l17 -6 v-15h-254q-15 36 -42 123t-43 125q-15 38 -32.5 52.5t-49.5 14.5h-24v-217q0 -46 6.5 -58t32.5 -18l29 -7v-15h-340zM322 343q58 0 83.5 34t25.5 120q0 92 -22 127t-77 35q-37 0 -53 -4v-308q11 -4 43 -4z"/>
<glyph glyph-name="Rcommaaccent.alt" horiz-adv-x="706" d="M267 -244l-2 10q95 27 103 92q-13 -13 -38 -13q-26 0 -41 15t-15 39q0 25 20 43t54 18q36 0 59 -22t23 -57q0 -53 -43 -86t-120 -39zM7 0v15l30 7q21 6 27.5 10.5t10.5 18.5t4 47v497q0 46 -6.5 56.5t-35.5 19.5l-30 7v15h333q155 0 223 -43t68 -138q0 -78 -49.5 -119 t-158.5 -57v-3q50 -9 81 -24.5t56 -47.5q32 -40 65 -116t44 -92q17 -26 38 -32l17 -6v-15h-254q-15 36 -42 123t-43 125q-15 38 -32.5 52.5t-49.5 14.5h-24v-217q0 -46 6.5 -58t32.5 -18l29 -7v-15h-340zM322 343q58 0 83.5 34t25.5 120q0 92 -22 127t-77 35q-37 0 -53 -4 v-308q11 -4 43 -4z"/>
<glyph glyph-name="f.short" horiz-adv-x="340" d="M2 0v15l21 6q28 8 34 16.5t6 41.5v394h-65v11l65 38v23q0 100 50 158.5t161 58.5q62 0 93 -24t31 -60q0 -28 -16 -43.5t-42 -15.5q-31 0 -46 15.5t-19 57.5q-2 24 -6 33t-13 9q-7 0 -11.5 -7t-6.5 -27t-2 -58v-120h95l-8 -49h-87v-394q0 -32 5.5 -40.5t31.5 -14.5l33 -9 v-15h-304z"/>
<glyph glyph-name="f_f.short" horiz-adv-x="648" d="M305 749q86 0 123 -40q53 53 154 53q62 0 93 -24t31 -60q0 -28 -15.5 -43.5t-41.5 -15.5q-31 0 -46.5 15.5t-18.5 57.5q-2 24 -6 33t-13 9q-12 0 -16.5 -18t-4.5 -74v-120h95l-7 -49h-88v-394q0 -32 5.5 -40.5t31.5 -14.5l33 -9v-15h-296v15l18 5q25 6 30.5 14.5 t5.5 44.5v394h-136v-394q0 -35 5 -44t29 -15l22 -5v-15h-290v15l21 6q28 8 34 16.5t6 41.5v394h-65v11l65 38v19q0 95 63 151.5t179 56.5zM372 522v23q0 32 4 57q-32 2 -45 21t-16 65q-2 21 -6.5 27.5t-14.5 6.5q-58 0 -58 -116v-84h136z"/>
<glyph glyph-name="g.short" horiz-adv-x="522" d="M212 -202q-224 0 -224 108q0 37 32 62.5t95 35.5v2q-93 23 -93 102q0 39 23.5 70.5t56.5 50.5v2q-83 43 -83 129q0 82 62 129t156 47q74 0 131 -30q46 53 92 53q58 0 58 -55q0 -23 -11.5 -35t-29.5 -12q-31 0 -47 30q-10 17 -19.5 18.5t-26.5 -11.5v-2q72 -49 72 -118 q0 -81 -62.5 -127.5t-156.5 -46.5q-65 0 -116 20q-20 -20 -20 -45q0 -29 48 -29h194q168 0 168 -135q0 -95 -82.5 -154t-216.5 -59zM234 -175q170 0 170 103q0 38 -22.5 54.5t-72.5 16.5h-171q-27 -21 -27 -78q0 -47 28.5 -71.5t94.5 -24.5zM237 226q35 0 48 28t13 110 q0 86 -13.5 116t-47.5 30t-47 -28.5t-13 -111.5q0 -84 13.5 -114t46.5 -30z"/>
<glyph glyph-name="gbreve.short" horiz-adv-x="522" d="M212 -202q-224 0 -224 108q0 37 32 62.5t95 35.5v2q-93 23 -93 102q0 39 23.5 70.5t56.5 50.5v2q-83 43 -83 129q0 82 62 129t156 47q74 0 131 -30q46 53 92 53q58 0 58 -55q0 -23 -11.5 -35t-29.5 -12q-31 0 -47 30q-10 17 -19.5 18.5t-26.5 -11.5v-2q72 -49 72 -118 q0 -81 -62.5 -127.5t-156.5 -46.5q-65 0 -116 20q-20 -20 -20 -45q0 -29 48 -29h194q168 0 168 -135q0 -95 -82.5 -154t-216.5 -59zM234 -175q170 0 170 103q0 38 -22.5 54.5t-72.5 16.5h-171q-27 -21 -27 -78q0 -47 28.5 -71.5t94.5 -24.5zM237 226q35 0 48 28t13 110 q0 86 -13.5 116t-47.5 30t-47 -28.5t-13 -111.5q0 -84 13.5 -114t46.5 -30zM248 575q-104 0 -127 150l10 4q17 -32 44.5 -45.5t73.5 -13.5q84 0 116 59l10 -4q-9 -68 -41 -109t-86 -41z"/>
<glyph glyph-name="gcircumflex.short" horiz-adv-x="522" d="M220 734h52l119 -154l-5 -8l-140 57l-139 -57l-5 8zM212 -202q-224 0 -224 108q0 37 32 62.5t95 35.5v2q-93 23 -93 102q0 39 23.5 70.5t56.5 50.5v2q-83 43 -83 129q0 82 62 129t156 47q74 0 131 -30q46 53 92 53q58 0 58 -55q0 -23 -11.5 -35t-29.5 -12q-31 0 -47 30 q-10 17 -19.5 18.5t-26.5 -11.5v-2q72 -49 72 -118q0 -81 -62.5 -127.5t-156.5 -46.5q-65 0 -116 20q-20 -20 -20 -45q0 -29 48 -29h194q168 0 168 -135q0 -95 -82.5 -154t-216.5 -59zM234 -175q170 0 170 103q0 38 -22.5 54.5t-72.5 16.5h-171q-27 -21 -27 -78 q0 -47 28.5 -71.5t94.5 -24.5zM237 226q35 0 48 28t13 110q0 86 -13.5 116t-47.5 30t-47 -28.5t-13 -111.5q0 -84 13.5 -114t46.5 -30z"/>
<glyph glyph-name="gcommaaccent.short" horiz-adv-x="522" d="M212 -202q-224 0 -224 108q0 37 32 62.5t95 35.5v2q-93 23 -93 102q0 39 23.5 70.5t56.5 50.5v2q-83 43 -83 129q0 82 62 129t156 47q74 0 131 -30q46 53 92 53q58 0 58 -55q0 -23 -11.5 -35t-29.5 -12q-31 0 -47 30q-10 17 -19.5 18.5t-26.5 -11.5v-2q72 -49 72 -118 q0 -81 -62.5 -127.5t-156.5 -46.5q-65 0 -116 20q-20 -20 -20 -45q0 -29 48 -29h194q168 0 168 -135q0 -95 -82.5 -154t-216.5 -59zM234 -175q170 0 170 103q0 38 -22.5 54.5t-72.5 16.5h-171q-27 -21 -27 -78q0 -47 28.5 -71.5t94.5 -24.5zM237 226q35 0 48 28t13 110 q0 86 -13.5 116t-47.5 30t-47 -28.5t-13 -111.5q0 -84 13.5 -114t46.5 -30zM332 767l2 -10q-93 -26 -104 -93q14 14 39 14t40.5 -15t15.5 -40q0 -24 -20.5 -42t-53.5 -18q-36 0 -59.5 22t-23.5 57q0 53 43 86t121 39z"/>
<glyph glyph-name="gdotaccent.short" horiz-adv-x="522" d="M212 -202q-224 0 -224 108q0 37 32 62.5t95 35.5v2q-93 23 -93 102q0 39 23.5 70.5t56.5 50.5v2q-83 43 -83 129q0 82 62 129t156 47q74 0 131 -30q46 53 92 53q58 0 58 -55q0 -23 -11.5 -35t-29.5 -12q-31 0 -47 30q-10 17 -19.5 18.5t-26.5 -11.5v-2q72 -49 72 -118 q0 -81 -62.5 -127.5t-156.5 -46.5q-65 0 -116 20q-20 -20 -20 -45q0 -29 48 -29h194q168 0 168 -135q0 -95 -82.5 -154t-216.5 -59zM234 -175q170 0 170 103q0 38 -22.5 54.5t-72.5 16.5h-171q-27 -21 -27 -78q0 -47 28.5 -71.5t94.5 -24.5zM237 226q35 0 48 28t13 110 q0 86 -13.5 116t-47.5 30t-47 -28.5t-13 -111.5q0 -84 13.5 -114t46.5 -30zM152 650q0 36 25.5 59t62.5 23q39 0 63.5 -23t24.5 -59q0 -38 -24.5 -60t-63.5 -22q-38 0 -63 22.5t-25 59.5z"/>
<glyph glyph-name="registered.alt" horiz-adv-x="769" d="M190 151v16l19 4q14 3 18.5 10t4.5 33v270q0 25 -4.5 32t-18.5 12l-19 3v17h198q166 0 166 -106q0 -76 -74 -95v-3q36 -85 88 -160q7 -9 23 -14l9 -3v-16h-140q-45 65 -84 170q-19 0 -28 1v-108q0 -26 4 -32.5t19 -10.5l18 -4v-16h-199zM373 345q34 0 49 19t15 69 t-11.5 69.5t-43.5 19.5q-13 0 -34 -3v-172q8 -2 25 -2zM28 344q0 149 103.5 253.5t253.5 104.5q149 0 252.5 -104.5t103.5 -253.5q0 -150 -103 -254t-253 -104t-253.5 104t-103.5 254zM63 344q0 -136 92.5 -232.5t229.5 -96.5q136 0 229 96.5t93 232.5t-93 232.5t-229 96.5 q-137 0 -229.5 -96.5t-92.5 -232.5z"/>
<glyph glyph-name="questiondown.uc" horiz-adv-x="455" d="M314 478v-189q-68 -21 -105 -57t-37 -105q0 -53 22 -79.5t60 -26.5q16 0 21.5 8.5t8.5 36.5q6 51 25 71.5t63 20.5q34 0 51.5 -18t17.5 -46q0 -48 -53 -75t-142 -27q-104 0 -163 48.5t-59 138.5q0 89 64.5 150t191.5 88v61h34zM376 617q0 -38 -25 -62.5t-62 -24.5 q-35 0 -61 25t-26 62q0 36 26 61t61 25q36 0 61.5 -25t25.5 -61z"/>
<glyph glyph-name="exclamdown.uc" horiz-adv-x="274" d="M42 139l85 339h20l85 -339q21 -72 -6.5 -109.5t-87.5 -37.5q-61 0 -89 37.5t-7 109.5zM50 616q0 36 26 61t61 25q36 0 61.5 -25t25.5 -61q0 -38 -25 -62t-62 -24q-35 0 -61 24.5t-26 61.5z"/>
<glyph glyph-name="hyphen.uc" horiz-adv-x="285" d="M17 294l10 103h242l-12 -103h-240z"/>
<glyph glyph-name="endash.uc" horiz-adv-x="418" d="M31 329v34h356v-34h-356z"/>
<glyph glyph-name="emdash.uc" horiz-adv-x="674" d="M31 329v34h612v-34h-612z"/>
<glyph glyph-name="guilsinglleft.uc" horiz-adv-x="239" d="M213 127h-19l-175 201v7l175 201h19l-87 -203z"/>
<glyph glyph-name="guilsinglright.uc" horiz-adv-x="239" d="M45 127h-19l87 206l-87 203h19l175 -201v-7z"/>
<glyph glyph-name="guillemotleft.uc" horiz-adv-x="398" d="M194 130l-175 200v8l175 201h19l-87 -206l87 -203h-19zM353 130l-175 200v8l175 201h19l-87 -206l87 -203h-19z"/>
<glyph glyph-name="guillemotright.uc" horiz-adv-x="398" d="M379 330l-175 -200h-19l87 203l-87 206h19l175 -201v-8zM220 330l-175 -200h-19l87 203l-87 206h19l175 -201v-8z"/>
<glyph glyph-name="parenleft.uc" horiz-adv-x="301" d="M291 -88l-10 -9q-246 175 -246 440q0 75 23.5 147.5t62 129t78.5 98t82 71.5l9 -10q-67 -64 -109.5 -176t-42.5 -237q0 -278 153 -454z"/>
<glyph glyph-name="parenright.uc" horiz-adv-x="301" d="M11 780l9 9q42 -30 82 -71.5t78.5 -97t62 -128t23.5 -148.5q0 -265 -246 -441l-10 9q153 176 153 446q0 132 -42.5 244t-109.5 178z"/>
<glyph glyph-name="bracketleft.uc" horiz-adv-x="310" d="M166 679v-665q0 -48 11.5 -61t55.5 -17l66 -7v-15h-226v864h226v-15l-66 -7q-44 -4 -55.5 -17t-11.5 -60z"/>
<glyph glyph-name="bracketright.uc" horiz-adv-x="310" d="M144 14v665q0 47 -11.5 60t-54.5 17l-67 7v15h227v-864h-227v15l67 7q43 4 54.5 17.5t11.5 60.5z"/>
<glyph glyph-name="braceleft.uc" horiz-adv-x="333" d="M29 337v24q66 5 93 20.5t27 41.5q0 21 -26.5 117t-26.5 125q0 57 52 81.5t175 34.5v-15q-79 -12 -101.5 -27t-22.5 -56q0 -40 12 -125t12 -108q0 -40 -31 -63t-110 -37v-2q81 -15 111 -38.5t30 -65.5q0 -22 -12 -106t-12 -125t23 -56.5t101 -27.5v-15q-127 10 -177 34.5 t-50 82.5q0 29 26.5 124.5t26.5 116.5q0 28 -27 44t-93 21z"/>
<glyph glyph-name="braceright.uc" horiz-adv-x="333" d="M304 361v-24q-119 -9 -119 -65q0 -21 26 -116.5t26 -124.5q0 -58 -50.5 -82.5t-175.5 -34.5v15q78 12 100.5 27.5t22.5 56.5t-12 125t-12 106q0 42 30.5 65.5t111.5 38.5v2q-80 14 -111 37t-31 63q0 23 12 108t12 125q0 41 -22.5 56t-100.5 27v15q123 -10 174.5 -34.5 t51.5 -81.5q0 -29 -26 -125t-26 -117q0 -26 26.5 -41.5t92.5 -20.5z"/>
<glyph glyph-name="slash.uc" horiz-adv-x="374" d="M363 779l-328 -864h-35l328 864h35z"/>
<glyph glyph-name="backslash.uc" horiz-adv-x="374" d="M339 -85l-328 864h35l328 -864h-35z"/>
<glyph glyph-name="bar.uc" horiz-adv-x="182" d="M75 -85v864h32v-864h-32z"/>
<glyph glyph-name="at.uc" horiz-adv-x="831" d="M401 -11q-171 0 -274.5 80t-103.5 235q0 109 59.5 203t158.5 148t212 54q166 0 262.5 -78t96.5 -203q0 -138 -75 -217t-179 -79q-112 0 -118 89h-3q-21 -38 -55.5 -63t-71.5 -25q-53 0 -84 35.5t-31 104.5q0 120 76 206t182 86q76 0 135 -46h2l52 38l9 -2q-1 -2 -8 -23 q-8 -26 -19 -84l-34 -177q-19 -104 35 -104q43 0 77 58.5t34 182.5q0 126 -73 201t-215 75q-88 0 -164.5 -39.5t-127 -124t-50.5 -199.5q0 -142 78.5 -222t233.5 -80q129 0 225 50v-20q-34 -23 -102 -41.5t-140 -18.5zM382 210q23 0 52 35l53 268q-6 30 -36 30 q-39 0 -70.5 -87t-31.5 -180q0 -66 33 -66z"/>
" k="5"/>
" k="-5"/>
" u2="9" k="20"/>
" u2="8" k="20"/>
" u2="7" k="55"/>
" u2="4" k="15"/>
" u2="3" k="70"/>
" u2="2" k="75"/>
" u2="1" k="25"/>
</font>
</defs>
</svg>
